<?xml version="1.0" standalone="no"?>
<!DOCTYPE svg PUBLIC "-//W3C//DTD SVG 1.1//EN" "http://www.w3.org/Graphics/SVG/1.1/DTD/svg11.dtd" >
<svg xmlns="http://www.w3.org/2000/svg" xmlns:xlink="http://www.w3.org/1999/xlink" version="1.1">
<metadata>
Created by FontForge 20170731 at Sat Jan 23 23:47:30 2021
 By Aleksey,,,
Copyright (c) 2017 by Deni Anggara. All rights reserved.
</metadata>
<defs>
<font id="AllianceNo.1-SemiBold" horiz-adv-x="0" >
  <font-face 
    font-family="Alliance No.1 SemiBold"
    font-weight="600"
    font-stretch="normal"
    units-per-em="2048"
    panose-1="0 0 7 0 0 0 0 0 0 0"
    ascent="1638"
    descent="-410"
    x-height="1085"
    cap-height="1493"
    bbox="-1030 -545 4329 2030"
    underline-thickness="102"
    underline-position="-307"
    unicode-range="U+000D-FB02"
  />
<missing-glyph horiz-adv-x="1318" 
d="M0 0v1493h1319v-1493h-1319zM129 127h1061v1237h-1061v-1237zM258 256v979h803v-979h-803zM387 387h545v719h-545v-719zM516 516h287v461h-287v-461z" />
    <glyph glyph-name="fi" unicode="fi" horiz-adv-x="1300" 
d="M1151 1085v-1085h-254v879h-420v-879h-254v879h-200v206h200v105q0 168 96.5 253t266.5 85q73 0 139 -15v-204q-46 10 -92 10q-156 0 -156 -150v-84h674zM897 1501h254v-274h-254v274z" />
    <glyph glyph-name="fl" unicode="fl" horiz-adv-x="1316" 
d="M915 1513h252v-1513h-252v879h-440v-879h-254v879h-198v206h198v105q0 168 97.5 253t267.5 85q73 0 139 -15v-204q-46 10 -92 10q-158 0 -158 -150v-84h440v428z" />
    <glyph glyph-name="f_f" unicode="ff" horiz-adv-x="1425" 
d="M1311 1319q-158 0 -158 -150v-84h250v-206h-250v-879h-254v879h-422v-879h-256v879h-198v206h198v105q0 168 97.5 253t267.5 85q73 0 139 -15v-204q-46 10 -92 10q-156 0 -156 -150v-84h422v105q0 169 97 253.5t268 84.5q70 0 139 -15v-204q-46 10 -92 10z" />
    <glyph glyph-name="f_f_i" unicode="ffi" horiz-adv-x="1961" 
d="M1815 1085v-1085h-254l-2 879h-416v-879h-254v879h-412v-879h-256v879h-198v206h198v105q0 168 97.5 253t267.5 85q73 0 139 -15v-204q-46 10 -92 10q-156 0 -156 -150v-84h412v105q0 168 96 253t266 85q74 0 140 -15v-204q-46 10 -93 10q-82 0 -118.5 -38t-36.5 -112
v-84h672zM1559 1501h256v-274h-256v274z" />
    <glyph glyph-name="t_i" unicode="ti" horiz-adv-x="1290" 
d="M889 1501h254v-274h-254v274zM1143 1085v-1085h-254v879h-434v-529q0 -34 5 -59.5t18 -50t41 -37.5t69 -13q61 0 102 13v-203q-82 -16 -166 -16q-79 0 -137.5 18t-94 48t-57 74.5t-29 90t-7.5 102.5v562h-179v206h179v293l256 99v-392h688z" />
    <glyph glyph-name="t_t" unicode="tt" horiz-adv-x="1447" 
d="M1386 879h-237v-529q0 -72 28.5 -116t106.5 -44q61 0 102 13v-203q-85 -16 -165 -16q-79 0 -137.5 18t-94 48t-57 74.5t-29.5 90t-8 102.5v562h-440v-529q0 -34 5 -59.5t18 -50t41 -37.5t69 -13q61 0 102 13v-203q-82 -16 -166 -16q-79 0 -137.5 18t-94 48t-57 74.5
t-29 90t-7.5 102.5v562h-179v206h179v293l256 99v-392h440v293l254 99v-392h237v-206z" />
    <glyph glyph-name="t_t_i" unicode="tti" horiz-adv-x="1957" 
d="M1556 1501h254v-274h-254v274zM1810 1085v-1085h-254v879h-434v-529q0 -73 28 -116.5t107 -43.5q60 0 101 13v-203q-82 -16 -166 -16q-79 0 -137.5 18t-93.5 48t-56.5 74.5t-29 90t-7.5 102.5v562h-413v-529q0 -34 5 -59.5t18 -50t41 -37.5t69 -13q61 0 102 13v-203
q-82 -16 -166 -16q-79 0 -137.5 18t-94 48t-57 74.5t-29 90t-7.5 102.5v562h-179v206h179v293l256 99v-392h413v293l254 99v-392h688z" />
    <glyph glyph-name="hyphen_hyphen_greater" unicode="&#x2d;&#x2d;&#x3e;" horiz-adv-x="1746" 
d="M197 473v152h1241l-346 469h186l410 -543l-410 -551h-186l346 473h-1241z" />
    <glyph glyph-name="less_hyphen_hyphen" unicode="&#x3c;&#x2d;&#x2d;" horiz-adv-x="1746" 
d="M1552 473h-1241l346 -473h-186l-410 551l410 543h186l-346 -469h1241v-152z" />
    <glyph glyph-name=".notdef" horiz-adv-x="1318" 
d="M0 0v1493h1319v-1493h-1319zM129 127h1061v1237h-1061v-1237zM258 256v979h803v-979h-803zM387 387h545v719h-545v-719zM516 516h287v461h-287v-461z" />
    <glyph glyph-name=".null" 
 />
    <glyph glyph-name="nonmarkingreturn" horiz-adv-x="682" 
 />
    <glyph glyph-name="CR" unicode="&#xd;" horiz-adv-x="430" 
 />
    <glyph glyph-name="space" unicode=" " horiz-adv-x="454" 
 />
    <glyph glyph-name="exclam" unicode="!" horiz-adv-x="600" 
d="M238 461l-66 600v432h258v-432l-65 -600h-127zM160 0v250h278v-250h-278z" />
    <glyph glyph-name="quotedbl" unicode="&#x22;" horiz-adv-x="901" 
d="M307 834h-108l-62 358v301h234v-301zM702 834h-108l-64 358v301h234v-301z" />
    <glyph glyph-name="numbersign" unicode="#" horiz-adv-x="1460" 
d="M1343 973h-237v-402h237v-135h-237v-436h-141v436h-465v-436h-146v436h-237v135h237v402h-237v133h237v430h146v-430h465v430h141v-430h237v-133zM965 571v402h-465v-402h465z" />
    <glyph glyph-name="dollar" unicode="$" horiz-adv-x="1144" 
d="M1059 498q0 -164 -110 -268.5t-298 -123.5v-161h-174v164q-186 23 -291.5 132.5t-105.5 276.5h256q0 -105 60 -159t175 -54q105 0 161 43.5t56 118.5q0 67 -42 102.5t-130 59.5l-174 41q-95 23 -163 62.5t-104.5 89.5t-52.5 101t-16 109q0 151 100.5 252t270.5 123v164
h174v-166q165 -22 262.5 -121t98.5 -252h-254q-2 85 -55.5 133.5t-147.5 48.5q-87 0 -134.5 -41t-47.5 -110t48.5 -105.5t133.5 -56.5l166 -39q177 -40 257.5 -136.5t80.5 -227.5z" />
    <glyph glyph-name="percent" unicode="%" horiz-adv-x="1839" 
d="M113 1141q0 163 101 265.5t263 102.5q165 0 267 -102.5t102 -267.5q0 -166 -102.5 -270.5t-266.5 -104.5q-160 0 -262 105t-102 272zM379 0l946 1493h156l-949 -1493h-153zM291 1141q0 -96 51.5 -156.5t134.5 -60.5q86 0 138.5 60.5t52.5 156.5q0 94 -53 152.5t-138 58.5
q-82 0 -134 -58.5t-52 -152.5zM991 354q0 164 102 268.5t265 104.5q164 0 264 -104.5t100 -270.5q0 -165 -101 -268.5t-263 -103.5t-264.5 103.5t-102.5 270.5zM1169 356q0 -95 53 -156t136 -61q84 0 136 60.5t52 156.5q0 94 -52.5 153.5t-135.5 59.5t-136 -59.5t-53 -153.5
z" />
    <glyph glyph-name="ampersand" unicode="&#x26;" horiz-adv-x="1527" 
d="M1370 721q-23 -107 -70.5 -222t-103.5 -200l274 -299h-311l-123 135q-80 -77 -198 -116t-246 -39q-215 0 -347 103.5t-132 285.5q0 130 75.5 233t233.5 197v14q-115 108 -159 184t-44 168q0 156 111.5 250t298.5 94q182 0 289.5 -91.5t107.5 -241.5q0 -105 -62 -194.5
t-206 -188.5v-17l289 -317q71 147 104 317zM461 1167q0 -55 32.5 -111t108.5 -128h16q166 129 166 246q0 66 -44 105.5t-115 39.5q-74 0 -119 -41.5t-45 -110.5zM371 403q0 -101 68 -158t184 -57q82 0 154.5 28.5t115.5 76.5l-334 364q-188 -105 -188 -254z" />
    <glyph glyph-name="quotesingle" unicode="'" horiz-adv-x="505" 
d="M307 834h-108l-62 358v301h234v-301z" />
    <glyph glyph-name="parenleft" unicode="(" horiz-adv-x="796" 
d="M139 653q0 279 128 534t335 392h160q-210 -134 -340.5 -389t-130.5 -537q0 -277 130.5 -532.5t340.5 -390.5h-160q-207 135 -335 389.5t-128 533.5z" />
    <glyph glyph-name="parenright" unicode=")" horiz-adv-x="778" 
d="M657 653q0 -283 -126.5 -535.5t-335.5 -387.5h-158q210 135 339.5 390t129.5 533q0 282 -129.5 537t-339.5 389h158q209 -136 335.5 -390.5t126.5 -535.5z" />
    <glyph glyph-name="asterisk" unicode="*" horiz-adv-x="720" 
d="M74 1085l221 101l-221 102l59 103l195 -144l-25 246h115l-23 -248l193 146l59 -103l-221 -102l221 -101l-59 -102l-193 147l23 -247h-115l25 247l-195 -147z" />
    <glyph glyph-name="plus" unicode="+" horiz-adv-x="1280" 
d="M745 569v-417h-210v417h-394v203h394v408h210v-408h394v-203h-394z" />
    <glyph glyph-name="comma" unicode="," horiz-adv-x="448" 
d="M78 -287v103q166 0 166 149v35h-140v287h271v-316q0 -121 -81 -189.5t-216 -68.5z" />
    <glyph glyph-name="hyphen" unicode="-" horiz-adv-x="958" 
d="M119 541v149h721v-149h-721z" />
    <glyph glyph-name="period" unicode="." horiz-adv-x="536" 
d="M133 0v303h273v-303h-273z" />
    <glyph glyph-name="slash" unicode="/" horiz-adv-x="790" 
d="M31 0l575 1493h154l-576 -1493h-153z" />
    <glyph glyph-name="zero" unicode="0" horiz-adv-x="1290" 
d="M645 -12q-247 0 -391.5 195.5t-144.5 559.5q0 185 40 329.5t112.5 236t170 139t215.5 47.5q244 0 388.5 -195.5t144.5 -556.5q0 -368 -147 -561.5t-388 -193.5zM643 213q143 0 206.5 135t63.5 387q0 281 -68.5 409t-199.5 128q-143 0 -206.5 -134t-63.5 -386
q0 -280 68.5 -409.5t199.5 -129.5z" />
    <glyph glyph-name="one" unicode="1" horiz-adv-x="960" 
d="M80 1024v193h53q148 0 241.5 69.5t108.5 190.5h238v-1477h-254v1024h-387z" />
    <glyph glyph-name="two" unicode="2" horiz-adv-x="1187" 
d="M684 225h420v-225h-1008v51q0 95 25.5 178t64 143t103 120.5t122 103.5t140.5 101q6 3 8.5 5t7 5t8.5 6q49 36 78 58t66 57.5t56.5 66t33.5 72t14 86.5q0 104 -62 161.5t-165 57.5q-116 0 -177 -68t-54 -188h-254q-6 216 131.5 347.5t365.5 131.5q216 0 347.5 -122
t131.5 -320q0 -82 -23.5 -153.5t-70 -132t-97.5 -108t-124 -100.5q-28 -20 -77.5 -54.5t-80.5 -56t-72.5 -54t-69 -59t-52.5 -60t-39 -66.5q150 16 303 16z" />
    <glyph glyph-name="three" unicode="3" horiz-adv-x="1239" 
d="M608 -20q-237 0 -372.5 128.5t-133.5 344.5h258q-3 -122 65.5 -187t184.5 -65t186 63.5t70 169.5q0 102 -68.5 162.5t-183.5 60.5h-141v201h125q118 0 182 59.5t64 153.5q0 96 -64.5 149.5t-165.5 53.5q-113 0 -176.5 -64.5t-64.5 -181.5h-260q0 212 141 339.5t369 127.5
q137 0 246 -46t174 -136.5t65 -212.5q0 -111 -54.5 -198t-158.5 -130v-12q118 -39 176.5 -131t58.5 -211q0 -197 -146 -317.5t-376 -120.5z" />
    <glyph glyph-name="four" unicode="4" horiz-adv-x="1267" 
d="M1022 514h172v-211h-172v-303h-254v303h-698v203l587 971h365v-963zM332 514h436v725z" />
    <glyph glyph-name="five" unicode="5" horiz-adv-x="1247" 
d="M662 985q214 0 346.5 -139t132.5 -357q0 -228 -146 -368.5t-383 -140.5q-229 0 -371 132t-139 345h258q-2 -110 67.5 -181t186.5 -71q119 0 192 76t73 200q0 127 -73.5 208t-195.5 81q-84 0 -148.5 -38.5t-88.5 -98.5h-242l35 844h887v-224h-662l-16 -356l10 -4
q43 41 120 66.5t157 25.5z" />
    <glyph glyph-name="six" unicode="6" horiz-adv-x="1265" 
d="M653 -20q-139 0 -243.5 53.5t-169 154t-96 237t-31.5 310.5q0 364 139.5 562t417.5 198q203 0 329 -103t146 -278h-256q-14 83 -75.5 123.5t-149.5 40.5q-156 0 -226 -126.5t-59 -350.5h12q45 87 130.5 131.5t195.5 44.5q201 0 327.5 -135t126.5 -355q0 -227 -141 -367
t-377 -140zM662 205q115 0 182 76.5t67 205.5q0 128 -68 203.5t-181 75.5q-118 0 -185 -82t-67 -203q0 -127 68.5 -201.5t183.5 -74.5z" />
    <glyph glyph-name="seven" unicode="7" horiz-adv-x="1136" 
d="M55 999v478h1022v-183q-203 -281 -359 -630t-210 -664h-275q49 300 195 636.5t344 616.5h-508v-254h-209z" />
    <glyph glyph-name="eight" unicode="8" horiz-adv-x="1228" 
d="M98 385q0 117 55 207t156 137v16q-99 45 -155 137.5t-56 207.5q0 179 143 291t375 112q230 0 372 -111.5t142 -291.5q0 -114 -55.5 -206t-154.5 -139v-16q100 -47 155 -138t55 -206q0 -182 -142 -293.5t-374 -111.5q-231 0 -373.5 112.5t-142.5 292.5zM360 1057
q0 -100 70 -157.5t184 -57.5q119 0 186.5 59t67.5 156q0 100 -69.5 157.5t-184.5 57.5q-119 0 -186.5 -58.5t-67.5 -156.5zM360 418q0 -102 70.5 -158.5t183.5 -56.5q119 0 186.5 59t67.5 156q0 100 -69.5 158.5t-184.5 58.5q-119 0 -186.5 -60t-67.5 -157z" />
    <glyph glyph-name="nine" unicode="9" horiz-adv-x="1259" 
d="M594 -20q-194 0 -321.5 104.5t-149.5 275.5h256q13 -77 74 -120t153 -43q154 0 224.5 125t56.5 352h-13q-45 -85 -129.5 -129.5t-193.5 -44.5q-205 0 -331 134t-126 353q0 227 139.5 367.5t372.5 140.5q113 0 203.5 -36t154 -102.5t106 -162.5t62 -213.5t19.5 -257.5
q0 -381 -138 -562t-419 -181zM602 711q119 0 186.5 81t67.5 203q0 125 -69.5 201t-184.5 76t-182.5 -77t-67.5 -206t69 -203.5t181 -74.5z" />
    <glyph glyph-name="colon" unicode=":" horiz-adv-x="569" 
d="M152 811v274h272v-274h-272zM152 0v274h272v-274h-272z" />
    <glyph glyph-name="semicolon" unicode=";" horiz-adv-x="514" 
d="M106 811v274h271v-274h-271zM80 -272v94q96 0 130 36.5t34 104.5v37h-138v274h271v-292q0 -128 -78.5 -191t-218.5 -63z" />
    <glyph glyph-name="less" unicode="&#x3c;" horiz-adv-x="1099" 
d="M940 47l-799 451v192l799 434v-254l-276 -133l-299 -137v-18l305 -142l270 -137v-256z" />
    <glyph glyph-name="equal" unicode="=" horiz-adv-x="1114" 
d="M164 715v217h786v-217h-786zM164 285v215h786v-215h-786z" />
    <glyph glyph-name="greater" unicode="&#x3e;" horiz-adv-x="1099" 
d="M160 47v256l270 137l309 142v18l-301 137l-278 133v254l798 -434v-192z" />
    <glyph glyph-name="question" unicode="?" horiz-adv-x="1202" 
d="M410 420v407q72 -16 137 -16q143 0 222 65.5t79 180.5q0 109 -71 171t-189 62q-114 0 -183.5 -55t-76.5 -152h-250q12 201 151 313.5t365 112.5q239 0 375.5 -123t136.5 -329q0 -183 -124.5 -304.5t-328.5 -134.5v-198h-243zM389 0v270h283v-270h-283z" />
    <glyph glyph-name="at" unicode="@" horiz-adv-x="1875" 
d="M106 643q0 256 107 453.5t301.5 306t446.5 108.5q234 0 416 -96.5t283 -271.5t101 -400q0 -239 -110 -385.5t-289 -146.5q-89 0 -149.5 43.5t-79.5 116.5h-15q-37 -78 -101 -116t-145 -38q-141 0 -228 106.5t-87 290.5q0 193 97 318t251 125q71 0 128.5 -31t90.5 -86h13
l20 92h123l-37 -508q-11 -164 113 -164q111 0 174 104t63 275q0 286 -175 452.5t-460 166.5q-210 0 -364 -91.5t-231.5 -250.5t-77.5 -365q0 -209 83.5 -369.5t239.5 -248.5t361 -88q263 0 487 108v-157q-209 -103 -491 -103q-251 0 -446 104t-304 298t-109 448zM723 616
q0 -122 45 -184.5t123 -62.5q95 0 153 79.5t58 213.5q0 121 -48.5 186t-127.5 65q-92 0 -147.5 -80t-55.5 -217z" />
    <glyph glyph-name="A" unicode="A" horiz-adv-x="1415" 
d="M1118 0l-104 299h-627l-106 -299h-279l543 1493h311l555 -1493h-293zM461 510h479l-72 207l-157 497h-13l-163 -497z" />
    <glyph glyph-name="B" unicode="B" horiz-adv-x="1462" 
d="M180 0v1493h715q202 0 321 -104.5t119 -274.5q0 -119 -56 -206.5t-157 -127.5v-18q124 -36 188 -129t64 -223q0 -187 -130 -298.5t-349 -111.5h-715zM442 866h387q106 0 168 56t62 155q0 97 -63 152t-167 55h-387v-418zM442 211h396q117 0 185.5 57.5t68.5 167.5
q0 114 -71 168.5t-183 54.5h-396v-448z" />
    <glyph glyph-name="C" unicode="C" horiz-adv-x="1542" 
d="M1458 504q-19 -156 -109 -275.5t-233 -184t-319 -64.5q-326 0 -521.5 210t-195.5 555q0 227 88.5 400.5t251.5 269.5t377 96q268 0 448.5 -142t212.5 -378h-278q-32 133 -135.5 208t-249.5 75q-199 0 -316 -143t-117 -388q0 -247 115.5 -386.5t313.5 -139.5
q156 0 258.5 78t130.5 209h278z" />
    <glyph glyph-name="D" unicode="D" horiz-adv-x="1536" 
d="M180 0v1493h600q214 0 368 -95t231 -262.5t77 -390.5t-77.5 -390t-231.5 -261t-367 -94h-600zM446 236h299q202 0 315.5 128t113.5 386t-114.5 382.5t-314.5 124.5h-299v-1021z" />
    <glyph glyph-name="E" unicode="E" horiz-adv-x="1316" 
d="M180 0v1493h1028v-236h-762v-374h660v-221h-660v-426h762v-236h-1028z" />
    <glyph glyph-name="F" unicode="F" horiz-adv-x="1259" 
d="M180 0v1493h1020v-236h-754v-477h672v-225h-672v-555h-266z" />
    <glyph glyph-name="G" unicode="G" horiz-adv-x="1644" 
d="M721 807h778v-807h-219l-18 225h-15q-66 -114 -199.5 -179.5t-299.5 -65.5q-298 0 -483 204.5t-185 546.5q0 354 197.5 567t525.5 213q255 0 432.5 -131.5t206.5 -343.5h-279q-30 112 -128 175t-236 63q-210 0 -323.5 -145.5t-113.5 -397.5q0 -257 115.5 -388.5
t310.5 -131.5q180 0 294 106t128 273h-489v217z" />
    <glyph glyph-name="H" unicode="H" horiz-adv-x="1648" 
d="M180 0v1493h266v-623h754v623h268v-1493h-268v653h-754v-653h-266z" />
    <glyph glyph-name="I" unicode="I" horiz-adv-x="626" 
d="M446 0h-266v1493h266v-1493z" />
    <glyph glyph-name="J" unicode="J" horiz-adv-x="833" 
d="M666 432q0 -121 -32.5 -209t-94 -139.5t-140.5 -75.5t-180 -24q-130 0 -186 16v225q53 -12 141 -12q110 0 166.5 58.5t56.5 187.5v1034h269v-1061z" />
    <glyph glyph-name="K" unicode="K" horiz-adv-x="1435" 
d="M1106 0l-420 629l-240 -289v-340h-266v1493h266v-778l637 778h326l-541 -649l562 -844h-324z" />
    <glyph glyph-name="L" unicode="L" horiz-adv-x="1169" 
d="M180 0v1493h266v-1251h650v-242h-916z" />
    <glyph glyph-name="M" unicode="M" horiz-adv-x="1871" 
d="M180 0v1493h342l408 -940h14l408 940h342v-1493h-262v705l18 423h-12l-500 -1103l-500 1103h-14l18 -426v-702h-262z" />
    <glyph glyph-name="N" unicode="N" horiz-adv-x="1619" 
d="M180 0v1493h316l684 -1128h12l-16 438v690h266v-1493h-318l-680 1124h-12l14 -424v-700h-266z" />
    <glyph glyph-name="O" unicode="O" horiz-adv-x="1587" 
d="M80 745q0 234 89 408t250 266t374 92q220 0 382.5 -96t247 -268t84.5 -399q0 -355 -194.5 -561.5t-519.5 -206.5q-219 0 -381.5 96.5t-247 269t-84.5 399.5zM362 748q0 -246 117 -387.5t314 -141.5q202 0 317 143.5t115 382.5q0 243 -118 386t-314 143q-199 0 -315 -144
t-116 -382z" />
    <glyph glyph-name="P" unicode="P" horiz-adv-x="1396" 
d="M815 1493q245 0 388 -136t143 -358q0 -224 -145.5 -359.5t-385.5 -135.5h-369v-504h-266v1493h635zM778 735q143 0 213 69.5t70 192.5q0 66 -22 115.5t-52.5 75t-72.5 41t-72.5 19t-63.5 3.5h-332v-516h332z" />
    <glyph glyph-name="Q" unicode="Q" horiz-adv-x="1587" 
d="M1006 6q123 -135 354 -135q72 0 113 8v-237q-43 -4 -93 -4q-232 0 -378.5 91.5t-208.5 250.5q-219 0 -381.5 96.5t-247 269t-84.5 399.5q0 234 89 408t250 266t374 92q220 0 382.5 -96t247 -268t84.5 -399q0 -292 -133.5 -486t-367.5 -256zM362 748q0 -246 117 -387.5
t314 -141.5q202 0 317 143.5t115 382.5q0 243 -118 386t-314 143q-199 0 -315 -144t-116 -382z" />
    <glyph glyph-name="R" unicode="R" horiz-adv-x="1482" 
d="M180 0v1493h703q230 0 350.5 -116.5t120.5 -319.5q0 -127 -62.5 -222.5t-171.5 -148.5v-14q209 -52 209 -291v-209q0 -117 23 -172h-275q-22 48 -22 180v156q0 108 -47 159.5t-168 51.5h-394v-547h-266zM446 780h345q130 0 204 67t74 179q0 234 -258 234h-365v-480z" />
    <glyph glyph-name="S" unicode="S" horiz-adv-x="1378" 
d="M354 465q6 -131 92 -200.5t246 -69.5q144 0 223.5 60.5t79.5 160.5q0 43 -16.5 77.5t-36.5 53.5t-53.5 34t-52.5 20t-48 11l-251 54q-34 7 -50.5 11t-56.5 15.5t-64 21.5t-61.5 29t-61.5 39t-52 50t-44 64t-27 79t-11 96q0 199 153.5 320.5t405.5 121.5q258 0 407 -119.5
t154 -320.5h-277q-7 112 -86 169.5t-211 57.5q-127 0 -195.5 -51.5t-68.5 -140.5q0 -30 9.5 -55t21.5 -42t35.5 -32t39.5 -23.5t46 -17t42 -11.5t40 -9l256 -52q85 -17 154.5 -48.5t126.5 -81t88.5 -124t31.5 -168.5q0 -219 -161.5 -341.5t-432.5 -122.5q-287 0 -447.5 133
t-162.5 352h276z" />
    <glyph glyph-name="T" unicode="T" horiz-adv-x="1159" 
d="M1147 1493v-238h-434v-1255h-269v1255h-432v238h1135z" />
    <glyph glyph-name="U" unicode="U" horiz-adv-x="1585" 
d="M168 563v930h266v-909q0 -171 96 -267t263 -96q165 0 261.5 95.5t96.5 267.5v909h266v-930q0 -269 -169 -426t-457 -157q-302 0 -462.5 157.5t-160.5 425.5z" />
    <glyph glyph-name="V" unicode="V" horiz-adv-x="1419" 
d="M539 0l-529 1493h297l221 -666l174 -577h15l174 577l223 666h295l-528 -1493h-342z" />
    <glyph glyph-name="W" unicode="W" horiz-adv-x="1968" 
d="M18 1493h293l150 -811l59 -387h17l278 1198h342l283 -1200h14l57 385l148 815h291l-303 -1493h-371l-283 1157h-14l-287 -1157h-368z" />
    <glyph glyph-name="X" unicode="X" horiz-adv-x="1357" 
d="M29 0l450 752l-450 741h323l170 -295l156 -289h14l162 295l162 289h319l-446 -745l454 -748h-325l-150 254l-178 317h-12l-184 -327l-142 -244h-323z" />
    <glyph glyph-name="Y" unicode="Y" horiz-adv-x="1394" 
d="M6 1493h322l190 -342l172 -322h17l174 320l190 344h318l-558 -907v-586h-268v586z" />
    <glyph glyph-name="Z" unicode="Z" horiz-adv-x="1189" 
d="M1149 1493v-217l-772 -1038h762v-238h-1100v219l770 1036h-770v238h1110z" />
    <glyph glyph-name="bracketleft" unicode="[" horiz-adv-x="641" 
d="M211 -461v2073h379v-131h-238v-1817h238v-125h-379z" />
    <glyph glyph-name="backslash" unicode="\" horiz-adv-x="794" 
d="M760 0h-154l-575 1493h153z" />
    <glyph glyph-name="bracketright" unicode="]" horiz-adv-x="641" 
d="M51 -461v125h238v1817h-238v131h379v-2073h-379z" />
    <glyph glyph-name="asciicircum" unicode="^" horiz-adv-x="831" 
d="M590 967l-174 319l-174 -319h-207l295 526h172l293 -526h-205z" />
    <glyph glyph-name="underscore" unicode="_" horiz-adv-x="708" 
d="M-4 -160v160h717v-160h-717z" />
    <glyph glyph-name="grave" unicode="`" horiz-adv-x="870" 
d="M590 1473l-434 243l108 182l404 -301z" />
    <glyph glyph-name="a" unicode="a" horiz-adv-x="1177" 
d="M68 297q0 167 117.5 259.5t316.5 92.5h266v72q0 95 -53 140.5t-148 45.5q-91 0 -146.5 -43t-60.5 -114h-247q13 164 140.5 260t324.5 96q218 0 330 -105.5t112 -291.5v-453q0 -76 59 -76q21 0 37 4v-182q-69 -16 -127 -16q-98 0 -151 46.5t-56 137.5h-14
q-32 -87 -126 -138.5t-218 -51.5q-161 0 -258.5 87t-97.5 230zM324 328q0 -72 48.5 -111t131.5 -39q120 0 192 72.5t72 189.5v47h-231q-108 0 -160.5 -43t-52.5 -116z" />
    <glyph glyph-name="b" unicode="b" horiz-adv-x="1308" 
d="M150 0v1513h253v-630h17q39 100 136 161.5t226 61.5q203 0 328 -152t125 -411q0 -257 -123 -410t-330 -153q-125 0 -222.5 56t-139.5 157h-17l-28 -193h-225zM403 487q0 -133 81 -213.5t206 -80.5q128 0 206.5 89t78.5 261q0 176 -80 262t-205 86q-129 0 -208 -83
t-79 -218v-103z" />
    <glyph glyph-name="c" unicode="c" horiz-adv-x="1163" 
d="M1098 387q-13 -183 -150 -295t-344 -112q-241 0 -385.5 154t-144.5 409t145 409t389 154q201 0 336 -108.5t150 -288.5h-254q-18 91 -81.5 136.5t-154.5 45.5q-132 0 -202 -94t-70 -256q0 -169 72.5 -258.5t197.5 -89.5q100 0 164.5 53.5t75.5 140.5h256z" />
    <glyph glyph-name="d" unicode="d" horiz-adv-x="1308" 
d="M1161 0h-225l-31 193h-14q-44 -100 -143 -156.5t-224 -56.5q-207 0 -328.5 150.5t-121.5 406.5q0 262 124 415.5t328 153.5q134 0 228.5 -63.5t136.5 -168.5h14v639h256v-1513zM905 487v103q0 140 -80.5 220.5t-208.5 80.5q-137 0 -209.5 -94.5t-72.5 -259.5
q0 -167 74.5 -255.5t203.5 -88.5q132 0 212.5 82.5t80.5 211.5z" />
    <glyph glyph-name="e" unicode="e" horiz-adv-x="1175" 
d="M602 -20q-237 0 -382.5 153.5t-145.5 407.5q0 257 144 411t380 154q230 0 364 -134.5t134 -357.5q0 -65 -11 -129h-757q-3 -147 70.5 -227t201.5 -80q96 0 163.5 44t86.5 114h252q-28 -160 -165 -258t-335 -98zM330 659h512q-2 119 -67.5 184.5t-182.5 65.5
q-115 0 -186 -68.5t-76 -181.5z" />
    <glyph glyph-name="f" unicode="f" horiz-adv-x="747" 
d="M725 879h-248v-879h-254v879h-200v206h200v105q0 168 96.5 253t266.5 85q73 0 139 -15v-204q-46 10 -92 10q-156 0 -156 -150v-84h248v-206z" />
    <glyph glyph-name="g" unicode="g" horiz-adv-x="1126" 
d="M51 -121q0 76 45 132t119 75v16q-53 19 -84 61.5t-31 96.5q0 67 41.5 117t112.5 72v14q-78 46 -120 121t-42 166q0 160 119 258t309 98q112 0 187 -35q33 96 125 154.5t217 58.5v-199q-70 0 -125 -24.5t-72 -63.5q113 -101 113 -256q0 -158 -116.5 -255t-305.5 -97
q-72 0 -140 14q-34 -7 -52.5 -29t-18.5 -52q0 -82 137 -82h262q165 0 255.5 -78t90.5 -213q0 -168 -146.5 -250t-408.5 -82q-235 0 -353 70t-118 192zM342 748q0 -85 51 -134t135 -49q88 0 138.5 50t50.5 133q0 85 -51.5 133.5t-137.5 48.5q-87 0 -136.5 -49.5t-49.5 -132.5
zM285 -74q0 -64 60.5 -94.5t189.5 -30.5q290 0 290 138q0 100 -131 100h-264q-71 0 -108 -30t-37 -83z" />
    <glyph glyph-name="h" unicode="h" horiz-adv-x="1290" 
d="M150 0v1513h253v-624h17q49 104 143.5 160.5t216.5 56.5q182 0 278.5 -120.5t96.5 -326.5v-659h-256v633q0 130 -57.5 194t-165.5 64q-125 0 -199 -86t-74 -227v-578h-253z" />
    <glyph glyph-name="i" unicode="i" horiz-adv-x="550" 
d="M150 1227v274h251v-274h-251zM150 0v1085h251v-1085h-251z" />
    <glyph glyph-name="j" unicode="j" horiz-adv-x="557" 
d="M156 1227v274h254v-274h-254zM61 -356q-67 0 -122 10v207q16 -6 59 -6q48 0 81 15.5t49 42.5t22 53.5t6 56.5v1062h254v-1097q0 -167 -94 -255.5t-255 -88.5z" />
    <glyph glyph-name="k" unicode="k" horiz-adv-x="1193" 
d="M883 0l-318 483l-159 -164v-319h-256v1513h256v-878l430 450h317l-412 -421l433 -664h-291z" />
    <glyph glyph-name="l" unicode="l" horiz-adv-x="550" 
d="M150 0v1513h251v-1513h-251z" />
    <glyph glyph-name="m" unicode="m" horiz-adv-x="1912" 
d="M150 0v1085h221l30 -200h19q99 221 321 221q114 0 195 -60.5t119 -166.5h18q49 114 140 170.5t208 56.5q173 0 265 -120.5t92 -328.5v-657h-254v631q0 260 -199 260q-117 0 -175 -80.5t-58 -216.5v-594h-256v635q0 256 -197 256q-109 0 -172.5 -81t-63.5 -212v-598h-253z
" />
    <glyph glyph-name="n" unicode="n" horiz-adv-x="1290" 
d="M150 0v1085h223l30 -200h17q51 106 145 163.5t215 57.5q182 0 278.5 -121.5t96.5 -327.5v-657h-256v631q0 260 -223 260q-125 0 -199 -88.5t-74 -231.5v-571h-253z" />
    <glyph glyph-name="o" unicode="o" horiz-adv-x="1214" 
d="M74 541q0 252 147 408.5t387 156.5q239 0 386 -156.5t147 -408.5q0 -250 -147 -405.5t-386 -155.5q-240 0 -387 155.5t-147 405.5zM332 543q0 -161 73 -254.5t201 -93.5t201.5 94t73.5 256q0 159 -73 252.5t-202 93.5q-127 0 -200.5 -94t-73.5 -254z" />
    <glyph glyph-name="p" unicode="p" horiz-adv-x="1308" 
d="M150 1085h225l28 -196h17q42 99 139.5 158t222.5 59q210 0 332.5 -151.5t122.5 -409.5q0 -261 -125.5 -413t-331.5 -152q-130 0 -225.5 59t-134.5 160h-17v-541h-253v1427zM403 592v-100q0 -132 80 -215.5t207 -83.5q137 0 212 96t75 258q0 165 -76.5 254.5t-206.5 89.5
q-127 0 -209 -85t-82 -214z" />
    <glyph glyph-name="q" unicode="q" horiz-adv-x="1308" 
d="M1161 1085v-1427h-256v541h-14q-42 -100 -139 -159.5t-228 -59.5q-203 0 -326.5 151.5t-123.5 411.5q0 256 122 409.5t330 153.5q126 0 223.5 -58t141.5 -159h14l31 196h225zM905 592q0 129 -82.5 214t-208.5 85t-203 -86.5t-77 -259.5q0 -169 76.5 -260.5t205.5 -91.5
t209 83.5t80 215.5v100z" />
    <glyph glyph-name="r" unicode="r" horiz-adv-x="778" 
d="M150 0v1085h221l32 -211h13q83 230 342 230v-223q-178 0 -266.5 -104t-88.5 -298v-479h-253z" />
    <glyph glyph-name="s" unicode="s" horiz-adv-x="1073" 
d="M324 336q0 -81 58.5 -125.5t160.5 -44.5q91 0 141.5 37t50.5 102q0 101 -125 121l-211 39q-305 54 -305 301q0 161 117.5 250.5t316.5 89.5q202 0 319 -92t120 -246h-248q-3 76 -54 115t-139 39q-85 0 -131.5 -35t-46.5 -96q0 -29 11.5 -51t26.5 -34t39 -21t40 -12.5
t39 -6.5l198 -35q295 -48 295 -309q0 -158 -124.5 -250t-331.5 -92q-219 0 -342 98t-123 258h248z" />
    <glyph glyph-name="t" unicode="t" horiz-adv-x="751" 
d="M20 1085h179v293l256 99v-392h235v-206h-235v-533q0 -36 5 -61.5t19 -48.5t42.5 -34.5t70.5 -11.5q55 0 98 13v-203q-81 -16 -168 -16q-78 0 -136.5 18t-93.5 48t-56.5 74.5t-29 90t-7.5 102.5v562h-179v206z" />
    <glyph glyph-name="u" unicode="u" horiz-adv-x="1263" 
d="M1128 1085v-1085h-221l-33 199h-18q-47 -102 -139.5 -160.5t-218.5 -58.5q-175 0 -269 111t-94 310v684h256v-647q0 -245 211 -245q124 0 198 89t74 232v571h254z" />
    <glyph glyph-name="v" unicode="v" horiz-adv-x="1048" 
d="M-8 1085h276l152 -503l100 -349h12l97 347l151 505h277l-375 -1085h-311z" />
    <glyph glyph-name="w" unicode="w" horiz-adv-x="1581" 
d="M1311 1085h256l-289 -1085h-317l-113 502l-53 264h-13l-53 -264l-108 -502h-316l-291 1085h258l121 -503l68 -328h16l170 831h291l170 -831h16l66 324z" />
    <glyph glyph-name="x" unicode="x" horiz-adv-x="1024" 
d="M-2 0l369 543l-357 542h271l233 -376h14l230 376h266l-348 -538l360 -547h-272l-242 375h-14l-246 -375h-264z" />
    <glyph glyph-name="y" unicode="y" horiz-adv-x="1024" 
d="M-12 1085h274l154 -462l96 -320h14l95 320l143 462h266l-387 -1103q-118 -344 -463 -344q-59 0 -121 10v211q51 -9 99 -9q52 0 92.5 14t65 38.5t38 47t21.5 48.5l18 53z" />
    <glyph glyph-name="z" unicode="z" horiz-adv-x="989" 
d="M383 207h532v-207h-839v186l526 693h-528v206h833v-186z" />
    <glyph glyph-name="braceleft" unicode="{" horiz-adv-x="643" 
d="M82 514v139q71 0 105 42t34 110v647q0 74 41 117t117 43h213v-131h-225v-666q0 -98 -42.5 -156t-111.5 -69v-6q71 -14 112.5 -74t41.5 -154v-692h225v-125h-213q-74 0 -116 40t-42 120v663q0 78 -39 115t-100 37z" />
    <glyph glyph-name="bar" unicode="|" horiz-adv-x="620" 
d="M199 -86v1628h219v-1628h-219z" />
    <glyph glyph-name="braceright" unicode="}" horiz-adv-x="643" 
d="M561 514q-62 0 -101.5 -37t-39.5 -115v-663q0 -79 -41 -119.5t-117 -40.5h-211v125h221v692q0 94 43 154t115 74v6q-70 11 -114 69t-44 156v666h-221v131h211q76 0 117 -43t41 -117v-647q0 -68 35 -110t106 -42v-139z" />
    <glyph glyph-name="asciitilde" unicode="~" horiz-adv-x="825" 
d="M35 555q-6 84 10 145.5t48 93t67.5 46t75.5 14.5q44 0 91.5 -17t81.5 -37.5t76.5 -37.5t77.5 -17q101 0 101 129h124q6 -86 -11 -148.5t-51 -95.5t-71.5 -48t-79.5 -15q-51 0 -103.5 17.5t-87.5 38t-75 38t-69 17.5q-43 0 -63 -34t-15 -89h-127z" />
    <glyph glyph-name="uni00A0" unicode="&#xa0;" horiz-adv-x="454" 
 />
    <glyph glyph-name="exclamdown" unicode="&#xa1;" horiz-adv-x="600" 
d="M160 1493h278v-252h-278v252zM238 1032h127l65 -600v-432h-258v432z" />
    <glyph glyph-name="cent" unicode="&#xa2;" horiz-adv-x="1103" 
d="M1022 602q-22 -157 -128 -258t-267 -121v-162h-172v162q-187 28 -295.5 165.5t-108.5 354.5q0 214 109 355t295 170v164h172v-162q165 -22 270.5 -121.5t122.5 -249.5h-250q-17 79 -78 123.5t-149 44.5q-118 0 -180 -88.5t-62 -237.5q0 -157 64 -236t178 -79
q89 0 150.5 48t76.5 128h252z" />
    <glyph glyph-name="sterling" unicode="&#xa3;" horiz-adv-x="1325" 
d="M991 492h223v-492h-1140v223h143v418h-143v207h143v209q0 207 127.5 330.5t343.5 123.5q194 0 320 -103.5t141 -272.5h-258q-13 70 -71 109.5t-136 39.5q-96 0 -152.5 -59.5t-56.5 -167.5v-209h465v-207h-465v-418h516v269z" />
    <glyph glyph-name="currency" unicode="&#xa4;" horiz-adv-x="1304" 
d="M127 283l156 139q-93 124 -91.5 270t91.5 269l-156 139l135 137l135 -160q117 77 257.5 77t254.5 -77l133 160l134 -137l-146 -135q89 -122 90.5 -267.5t-92.5 -277.5l150 -139l-134 -131l-133 157q-122 -82 -259 -80.5t-253 84.5l-137 -161zM416 692
q-1 -111 66.5 -181.5t170.5 -70.5q101 0 170.5 72t69.5 180q0 109 -69 178.5t-173 69.5q-100 0 -167.5 -68t-67.5 -180z" />
    <glyph glyph-name="yen" unicode="&#xa5;" horiz-adv-x="1331" 
d="M1325 1493l-407 -721h182v-211h-301v-112h301v-209h-301v-240h-267v240h-299v209h299v112h-299v211h181l-408 721h309l211 -418l131 -280h15l135 282l211 416h307z" />
    <glyph glyph-name="brokenbar" unicode="&#xa6;" horiz-adv-x="620" 
d="M199 860v682h219v-682h-219zM199 -94v669h219v-669h-219z" />
    <glyph glyph-name="section" unicode="&#xa7;" horiz-adv-x="1097" 
d="M86 717q0 91 50.5 152t133.5 87v19q-133 67 -133 215q0 139 115 225t313 86q186 0 302 -87t122 -226h-260q-7 57 -55 86t-121 29q-68 0 -101.5 -27.5t-33.5 -75.5q0 -12 2.5 -23.5t5.5 -20t11 -18t12 -15t15.5 -13t16 -11t19 -10.5t18 -8.5t19.5 -8t18 -7.5l203 -76
q26 -9 45 -16.5t47.5 -21.5t49.5 -28.5t44 -37t38 -47.5t24.5 -59.5t9.5 -73.5q0 -163 -148 -234v-20q59 -32 92 -91.5t33 -130.5q0 -149 -118.5 -234t-317.5 -85q-194 0 -313 82.5t-131 226.5h270q7 -55 53 -85t121 -30q74 0 112 30t38 85q0 52 -32 78.5t-102 52.5l-247 90
q-31 11 -54.5 21.5t-61 34.5t-62 51.5t-43.5 72.5t-19 97zM352 782q0 -29 11.5 -52.5t32.5 -40t37.5 -25.5t39.5 -19l172 -70q19 -9 43 -18t41 -16q33 36 33 92q0 33 -11 58t-33 41t-37.5 24t-43.5 18l-150 66q-7 3 -33.5 12.5t-58.5 26.5q-43 -37 -43 -97z" />
    <glyph glyph-name="dieresis" unicode="&#xa8;" horiz-adv-x="829" 
d="M98 1507v277h209v-277h-209zM510 1507v277h211v-277h-211z" />
    <glyph glyph-name="copyright" unicode="&#xa9;" horiz-adv-x="1933" 
d="M969 -135q-169 0 -324 62t-272 171t-186.5 270t-69.5 347q0 185 69.5 345t186 269.5t272.5 171.5t326 62q169 0 323.5 -62t270.5 -170.5t185 -268t69 -343.5q0 -185 -68.5 -346t-184 -271.5t-271 -173.5t-326.5 -63zM969 -66q157 0 298 57t246.5 158t167.5 249.5
t62 320.5q0 170 -62 316t-167 246t-246 157t-297 57q-157 0 -299.5 -57t-248 -158t-168 -248t-62.5 -317q0 -171 62.5 -318.5t168 -248t247 -157.5t298.5 -57zM981 252q-203 0 -335 130.5t-132 332.5t132 331.5t335 129.5q177 0 302.5 -100.5t137.5 -258.5h-182
q-12 90 -83.5 145.5t-174.5 55.5q-133 0 -208 -85t-75 -218q0 -138 75.5 -220.5t205.5 -82.5q104 0 176 54.5t84 143.5h182q-13 -157 -137.5 -257.5t-302.5 -100.5z" />
    <glyph glyph-name="ordfeminine" unicode="&#xaa;" horiz-adv-x="909" 
d="M809 870q19 0 25 2v-149q-40 -12 -91 -12q-76 0 -116.5 40t-40.5 111h-8q-25 -73 -89 -113t-153 -40q-113 0 -180.5 64.5t-67.5 168.5q0 113 79.5 177.5t215.5 64.5h182v30q0 62 -38 92.5t-103 30.5q-116 0 -139 -88h-187q11 110 102.5 177t237.5 67q158 0 239 -78
t81 -215v-274q0 -56 51 -56zM565 1022v33h-151q-68 0 -101.5 -27.5t-33.5 -73.5q0 -45 32 -69.5t86 -24.5q75 0 121.5 46t46.5 116z" />
    <glyph glyph-name="guillemotleft" unicode="&#xab;" horiz-adv-x="1114" 
d="M127 561l246 432h219l-221 -432l221 -436h-219zM561 561l246 432h223l-227 -432l227 -436h-223z" />
    <glyph glyph-name="logicalnot" unicode="&#xac;" horiz-adv-x="1249" 
d="M901 303v330h-760v213h973v-543h-213z" />
    <glyph glyph-name="registered" unicode="&#xae;" horiz-adv-x="1259" 
d="M629 430q-232 0 -387.5 153t-155.5 390q0 156 72 280t195.5 191t275.5 67q153 0 277.5 -67.5t196 -191t71.5 -279.5q0 -237 -155.5 -390t-389.5 -153zM631 500q201 0 336 132.5t135 340.5t-136 341.5t-335 133.5q-200 0 -335.5 -134.5t-135.5 -342.5q0 -207 135.5 -339
t335.5 -132zM432 727v508h244q81 0 122.5 -39t41.5 -106q0 -94 -78 -132v-2q69 -21 69 -100v-70q0 -39 9 -59h-105q-8 12 -8 61v48q0 36 -15.5 53.5t-56.5 17.5h-120v-180h-103zM535 989h108q44 0 66 22t22 60q0 76 -86 76h-110v-158z" />
    <glyph glyph-name="macron" unicode="&#xaf;" horiz-adv-x="727" 
d="M16 1499v189h691v-189h-691z" />
    <glyph glyph-name="degree" unicode="&#xb0;" horiz-adv-x="864" 
d="M748 1190q0 -134 -91.5 -221.5t-228.5 -87.5q-135 0 -223 87t-88 222q0 139 87.5 226t223.5 87q137 0 228.5 -87t91.5 -226zM571 1190q0 66 -40.5 106.5t-100.5 40.5q-58 0 -97.5 -40.5t-39.5 -106.5q0 -61 40 -102t97 -41q59 0 100 41t41 102z" />
    <glyph glyph-name="plusminus" unicode="&#xb1;" horiz-adv-x="1312" 
d="M766 680v-334h-223v334h-402v213h402v332h223v-332h405v-213h-405zM141 0v217h1030v-217h-1030z" />
    <glyph glyph-name="uni00B2" unicode="&#xb2;" horiz-adv-x="929" 
d="M508 797h342v-183h-756v39q0 91 29.5 169t76 133.5t103.5 104.5t113.5 91.5t103 84t76 93.5t29.5 109q0 77 -45.5 120.5t-124.5 43.5q-87 0 -135 -51.5t-44 -143.5h-206q1 170 109.5 271.5t283.5 101.5q171 0 275 -94t104 -246q0 -70 -23.5 -132.5t-62.5 -110t-86.5 -90
t-99.5 -81t-98 -74.5t-85 -78.5t-57 -85.5z" />
    <glyph glyph-name="uni00B3" unicode="&#xb3;" horiz-adv-x="958" 
d="M471 598q-181 0 -288.5 100.5t-102.5 264.5h211q-4 -87 46.5 -136t137.5 -49t139 48t52 126q0 82 -55.5 126t-149.5 44h-103v166h88q96 0 145.5 45.5t49.5 118.5q0 70 -48 110t-122 40q-86 0 -134.5 -49t-45.5 -134h-209q-7 161 101.5 261t291.5 100q166 0 272.5 -83.5
t106.5 -223.5q0 -82 -41 -147.5t-123 -104.5v-9q92 -36 139.5 -109t47.5 -167q0 -151 -113 -244.5t-293 -93.5z" />
    <glyph glyph-name="acute" unicode="&#xb4;" horiz-adv-x="872" 
d="M285 1466l-78 125l403 303l109 -182z" />
    <glyph glyph-name="paragraph" unicode="&#xb6;" horiz-adv-x="1390" 
d="M532 1493h685v-170h-144v-1327q0 -155 -79.5 -233t-231.5 -78h-541v155h297v873q-196 0 -309 106.5t-113 278.5q0 186 119 290.5t317 104.5zM752 -160q73 0 105 36.5t32 111.5v1335h-184v-1483h47z" />
    <glyph glyph-name="periodcentered" unicode="&#xb7;" horiz-adv-x="634" 
d="M131 578q0 81 54 137.5t130 56.5q78 0 133.5 -57t55.5 -137q0 -77 -55.5 -133t-133.5 -56q-75 0 -129.5 55.5t-54.5 133.5z" />
    <glyph glyph-name="cedilla" unicode="&#xb8;" horiz-adv-x="1060" 
d="M549 -86q43 3 85 -11.5t73.5 -54.5t31.5 -98q0 -73 -41.5 -121.5t-102 -64t-127 -7.5t-116.5 40v127q44 -35 97.5 -44.5t92 12t38.5 70.5q0 51 -47.5 70.5t-122.5 -6.5v63l104 179h94v-54z" />
    <glyph glyph-name="uni00B9" unicode="&#xb9;" horiz-adv-x="720" 
d="M47 1407v158h49q110 0 182 55.5t76 144.5h193v-1151h-205v793h-295z" />
    <glyph glyph-name="ordmasculine" unicode="&#xba;" horiz-adv-x="937" 
d="M90 1100q0 175 105 284t274 109q168 0 272.5 -109.5t104.5 -283.5q0 -172 -104.5 -280.5t-272.5 -108.5t-273.5 108.5t-105.5 280.5zM287 1102q0 -105 48.5 -169.5t133.5 -64.5q84 0 133 65t49 171q0 102 -49 165.5t-135 63.5q-83 0 -131.5 -63t-48.5 -168z" />
    <glyph glyph-name="guillemotright" unicode="&#xbb;" horiz-adv-x="1114" 
d="M553 561l-244 -436h-221l225 436l-225 432h221zM989 561l-246 -436h-221l226 436l-226 432h221z" />
    <glyph glyph-name="onequarter" unicode="&#xbc;" horiz-adv-x="1845" 
d="M1196 1573h201l-842 -1667h-201zM492 524h-183v654h-254v145h92q87 0 129.5 44.5t42.5 117.5v8h173v-969zM1710 344h105v-162h-105v-182h-180v182h-434v152l331 649h283v-639zM1296 344h234v459z" />
    <glyph glyph-name="onehalf" unicode="&#xbd;" horiz-adv-x="1890" 
d="M1196 1573h201l-842 -1667h-201zM492 524h-183v654h-254v145h92q87 0 129.5 44.5t42.5 117.5v8h173v-969zM1405 156l141 8h266v-164h-620v33q0 78 24.5 145t63 114.5t85.5 89.5t94 78t85.5 71.5t63 79t24.5 91.5q0 63 -37 99.5t-100 36.5q-68 0 -106 -45.5t-35 -118.5
l-183 12q3 138 95 223.5t241 85.5q145 0 228.5 -81.5t83.5 -211.5q0 -68 -25.5 -128t-64 -102t-87.5 -84.5t-94 -75.5t-85 -74.5t-58 -81.5z" />
    <glyph glyph-name="threequarters" unicode="&#xbe;" horiz-adv-x="1980" 
d="M1331 1573h201l-842 -1667h-201zM709 793q0 -125 -92.5 -205t-235.5 -80q-148 0 -238.5 84.5t-87.5 220.5h183q0 -66 40 -105.5t101 -39.5q63 0 103 38t40 95q0 64 -43 99.5t-110 35.5h-80v166h61q73 0 111.5 35.5t38.5 93.5q0 57 -35 86t-90 29q-64 0 -101.5 -40
t-35.5 -106h-185q-3 134 83.5 219.5t240.5 85.5q140 0 226.5 -71.5t86.5 -190.5q0 -65 -32.5 -120.5t-104.5 -88.5v-10q77 -30 116.5 -90t39.5 -141zM1845 344h105v-162h-105v-182h-180v182h-434v152l332 649h282v-639zM1432 344h233v459z" />
    <glyph glyph-name="questiondown" unicode="&#xbf;" horiz-adv-x="1204" 
d="M813 1493v-270h-281v270h281zM793 1073v-407q-69 16 -138 16q-142 0 -221.5 -65.5t-79.5 -180.5q0 -109 71 -171t191 -62q114 0 182 55t76 152h252q-12 -201 -151.5 -313.5t-364.5 -112.5q-240 0 -376 122.5t-136 329.5q0 183 124.5 304t328.5 134v199h242z" />
    <glyph glyph-name="Agrave" unicode="&#xc0;" horiz-adv-x="1415" 
d="M778 1710l-78 -125l-434 244l109 182zM1118 0l-104 299h-627l-106 -299h-279l543 1493h311l555 -1493h-293zM461 510h479l-72 207l-157 497h-13l-163 -497z" />
    <glyph glyph-name="Aacute" unicode="&#xc1;" horiz-adv-x="1415" 
d="M1133 1825l-435 -246l-77 125l403 303zM1118 0l-104 299h-627l-106 -299h-279l543 1493h311l555 -1493h-293zM461 510h479l-72 207l-157 497h-13l-163 -497z" />
    <glyph glyph-name="Acircumflex" unicode="&#xc2;" horiz-adv-x="1415" 
d="M702 1817l-223 -234l-121 119l269 268h151l269 -268l-125 -119zM1118 0l-104 299h-627l-106 -299h-279l543 1493h311l555 -1493h-293zM461 510h479l-72 207l-157 497h-13l-163 -497z" />
    <glyph glyph-name="Atilde" unicode="&#xc3;" horiz-adv-x="1415" 
d="M567 1675q-35 -1 -60.5 -18.5t-53.5 -52.5l-105 71q84 180 225 183q52 1 134 -39.5t127 -38.5q31 1 56.5 15.5t34.5 25.5t23 32l107 -71q-39 -92 -96 -138.5t-125 -48.5q-52 -1 -100 19.5t-89 41t-78 19.5zM1118 0l-104 299h-627l-106 -299h-279l543 1493h311l555 -1493
h-293zM461 510h479l-72 207l-157 497h-13l-163 -497z" />
    <glyph glyph-name="Adieresis" unicode="&#xc4;" horiz-adv-x="1415" 
d="M598 1892v-276h-209v276h209zM1012 1892v-276h-211v276h211zM1118 0l-104 299h-627l-106 -299h-279l543 1493h311l555 -1493h-293zM461 510h479l-72 207l-157 497h-13l-163 -497z" />
    <glyph glyph-name="Aring" unicode="&#xc5;" horiz-adv-x="1415" 
d="M1118 0l-104 299h-627l-106 -299h-279l535 1468q-84 68 -84 187q0 107 69 172t178 65q108 0 177 -65.5t69 -171.5q0 -119 -82 -185l547 -1470h-293zM700 1765q-46 0 -74 -30.5t-28 -79.5q0 -50 28 -80.5t74 -30.5t74.5 31t28.5 80t-28.5 79.5t-74.5 30.5zM461 510h479
l-72 207l-157 497h-13l-163 -497z" />
    <glyph glyph-name="AE" unicode="&#xc6;" horiz-adv-x="1994" 
d="M1886 1257h-760v-403h646v-219h-646v-399h760v-236h-1028v371h-463l-114 -371h-279l490 1493h1394v-236zM858 582v675h-188l-209 -675h397z" />
    <glyph glyph-name="Ccedilla" unicode="&#xc7;" horiz-adv-x="1542" 
d="M791 217q156 0 258.5 78t130.5 209h278q-29 -232 -205 -375t-434 -149l-37 -62q43 3 85 -11.5t74 -54.5t32 -98q0 -73 -41.5 -121.5t-102 -64t-127 -7.5t-116.5 40v127q44 -35 97 -44t91.5 12.5t38.5 70.5q0 51 -47.5 70t-122.5 -7v64l53 92q-284 32 -450 237t-166 522
q0 227 88.5 400.5t251.5 269.5t377 96q268 0 448.5 -142t212.5 -378h-278q-32 133 -135.5 208t-249.5 75q-199 0 -316 -143t-117 -388q0 -247 115.5 -386.5t313.5 -139.5z" />
    <glyph glyph-name="Egrave" unicode="&#xc8;" horiz-adv-x="1316" 
d="M676 1585l-434 244l108 182l404 -301zM180 0v1493h1028v-236h-762v-374h660v-221h-660v-426h762v-236h-1028z" />
    <glyph glyph-name="Eacute" unicode="&#xc9;" horiz-adv-x="1316" 
d="M674 1579l-78 125l403 303l109 -182zM180 0v1493h1028v-236h-762v-374h660v-221h-660v-426h762v-236h-1028z" />
    <glyph glyph-name="Ecircumflex" unicode="&#xca;" horiz-adv-x="1316" 
d="M332 1702l268 268h152l268 -268l-125 -119l-219 234l-223 -234zM180 0v1493h1028v-236h-762v-374h660v-221h-660v-426h762v-236h-1028z" />
    <glyph glyph-name="Edieresis" unicode="&#xcb;" horiz-adv-x="1316" 
d="M362 1616v276h209v-276h-209zM774 1616v276h211v-276h-211zM180 0v1493h1028v-236h-762v-374h660v-221h-660v-426h762v-236h-1028z" />
    <glyph glyph-name="Igrave" unicode="&#xcc;" horiz-adv-x="626" 
d="M315 1585l-434 244l109 182l403 -301zM446 0h-266v1493h266v-1493z" />
    <glyph glyph-name="Iacute" unicode="&#xcd;" horiz-adv-x="626" 
d="M313 1579l-77 125l403 303l109 -182zM446 0h-266v1493h266v-1493z" />
    <glyph glyph-name="Icircumflex" unicode="&#xce;" horiz-adv-x="626" 
d="M-29 1702l269 268h151l268 -268l-124 -119l-220 234l-223 -234zM446 0h-266v1493h266v-1493z" />
    <glyph glyph-name="Idieresis" unicode="&#xcf;" horiz-adv-x="626" 
d="M4 1616v276h209v-276h-209zM416 1616v276h211v-276h-211zM446 0h-266v1493h266v-1493z" />
    <glyph glyph-name="Eth" unicode="&#xd0;" horiz-adv-x="1536" 
d="M780 1493q214 0 368 -95t231 -262.5t77 -390.5t-77.5 -390t-231.5 -261t-367 -94h-600v666h-184v211h184v616h600zM745 236q202 0 315.5 128t113.5 386t-114.5 382.5t-314.5 124.5h-299v-380h244v-211h-244v-430h299z" />
    <glyph glyph-name="Ntilde" unicode="&#xd1;" horiz-adv-x="1619" 
d="M971 1595q-52 -1 -99.5 19.5t-88.5 41t-78 19.5q-60 -2 -115 -71l-105 71q84 180 226 183q52 1 133.5 -39.5t126.5 -38.5q31 1 56.5 15.5t34.5 25.5t23 32l107 -71q-39 -92 -96 -138.5t-125 -48.5zM180 0v1493h316l684 -1128h12l-16 438v690h266v-1493h-318l-680 1124
h-12l14 -424v-700h-266z" />
    <glyph glyph-name="Ograve" unicode="&#xd2;" horiz-adv-x="1587" 
d="M793 1585l-435 244l109 182l403 -301zM80 745q0 234 89 408t250 266t374 92q220 0 382.5 -96t247 -268t84.5 -399q0 -355 -194.5 -561.5t-519.5 -206.5q-219 0 -381.5 96.5t-247 269t-84.5 399.5zM362 748q0 -246 117 -387.5t314 -141.5q202 0 317 143.5t115 382.5
q0 243 -118 386t-314 143q-199 0 -315 -144t-116 -382z" />
    <glyph glyph-name="Oacute" unicode="&#xd3;" horiz-adv-x="1587" 
d="M791 1579l-78 125l403 303l109 -182zM80 745q0 234 89 408t250 266t374 92q220 0 382.5 -96t247 -268t84.5 -399q0 -355 -194.5 -561.5t-519.5 -206.5q-219 0 -381.5 96.5t-247 269t-84.5 399.5zM362 748q0 -246 117 -387.5t314 -141.5q202 0 317 143.5t115 382.5
q0 243 -118 386t-314 143q-199 0 -315 -144t-116 -382z" />
    <glyph glyph-name="Ocircumflex" unicode="&#xd4;" horiz-adv-x="1587" 
d="M451 1702l268 268h151l269 -268l-125 -119l-219 234l-224 -234zM80 745q0 234 89 408t250 266t374 92q220 0 382.5 -96t247 -268t84.5 -399q0 -355 -194.5 -561.5t-519.5 -206.5q-219 0 -381.5 96.5t-247 269t-84.5 399.5zM362 748q0 -246 117 -387.5t314 -141.5
q202 0 317 143.5t115 382.5q0 243 -118 386t-314 143q-199 0 -315 -144t-116 -382z" />
    <glyph glyph-name="Otilde" unicode="&#xd5;" horiz-adv-x="1587" 
d="M926 1595q-52 -1 -100 19.5t-89 41t-78 19.5q-35 -1 -60.5 -18.5t-53.5 -52.5l-105 71q84 180 226 183q52 1 133.5 -39.5t126.5 -38.5q31 1 56.5 15.5t34.5 25.5t23 32l107 -71q-39 -92 -96 -138.5t-125 -48.5zM80 745q0 234 89 408t250 266t374 92q220 0 382.5 -96
t247 -268t84.5 -399q0 -355 -194.5 -561.5t-519.5 -206.5q-219 0 -381.5 96.5t-247 269t-84.5 399.5zM362 748q0 -246 117 -387.5t314 -141.5q202 0 317 143.5t115 382.5q0 243 -118 386t-314 143q-199 0 -315 -144t-116 -382z" />
    <glyph glyph-name="Odieresis" unicode="&#xd6;" horiz-adv-x="1587" 
d="M481 1616v276h209v-276h-209zM893 1616v276h211v-276h-211zM80 745q0 234 89 408t250 266t374 92q220 0 382.5 -96t247 -268t84.5 -399q0 -355 -194.5 -561.5t-519.5 -206.5q-219 0 -381.5 96.5t-247 269t-84.5 399.5zM362 748q0 -246 117 -387.5t314 -141.5
q202 0 317 143.5t115 382.5q0 243 -118 386t-314 143q-199 0 -315 -144t-116 -382z" />
    <glyph glyph-name="multiply" unicode="&#xd7;" horiz-adv-x="1433" 
d="M150 190l411 424l-411 426l155 160l402 -416h22l397 416l158 -160l-410 -426l410 -424l-158 -161l-397 417h-22l-402 -417z" />
    <glyph glyph-name="Oslash" unicode="&#xd8;" horiz-adv-x="1720" 
d="M1640 1196l-151 -111q59 -148 59 -337q0 -355 -194.5 -561.5t-519.5 -206.5q-348 0 -543 233l-115 -84l-108 172l118 86q-65 157 -65 358q0 234 89 408t250 266t374 92q179 0 320.5 -63.5t234.5 -181.5l133 96zM406 748q0 -106 20 -185l743 541q-119 170 -335 170
q-198 0 -313 -144t-115 -382zM1266 745q0 79 -17 166l-737 -538q116 -154 322 -154q202 0 317 143.5t115 382.5z" />
    <glyph glyph-name="Ugrave" unicode="&#xd9;" horiz-adv-x="1585" 
d="M793 1585l-435 244l109 182l403 -301zM168 563v930h266v-909q0 -171 96 -267t263 -96q165 0 261.5 95.5t96.5 267.5v909h266v-930q0 -269 -169 -426t-457 -157q-302 0 -462.5 157.5t-160.5 425.5z" />
    <glyph glyph-name="Uacute" unicode="&#xda;" horiz-adv-x="1585" 
d="M791 1579l-78 125l403 303l109 -182zM168 563v930h266v-909q0 -171 96 -267t263 -96q165 0 261.5 95.5t96.5 267.5v909h266v-930q0 -269 -169 -426t-457 -157q-302 0 -462.5 157.5t-160.5 425.5z" />
    <glyph glyph-name="Ucircumflex" unicode="&#xdb;" horiz-adv-x="1585" 
d="M451 1702l268 268h151l269 -268l-125 -119l-219 234l-224 -234zM168 563v930h266v-909q0 -171 96 -267t263 -96q165 0 261.5 95.5t96.5 267.5v909h266v-930q0 -269 -169 -426t-457 -157q-302 0 -462.5 157.5t-160.5 425.5z" />
    <glyph glyph-name="Udieresis" unicode="&#xdc;" horiz-adv-x="1585" 
d="M481 1616v276h209v-276h-209zM893 1616v276h211v-276h-211zM168 563v930h266v-909q0 -171 96 -267t263 -96q165 0 261.5 95.5t96.5 267.5v909h266v-930q0 -269 -169 -426t-457 -157q-302 0 -462.5 157.5t-160.5 425.5z" />
    <glyph glyph-name="Yacute" unicode="&#xdd;" horiz-adv-x="1394" 
d="M696 1579l-78 125l404 303l108 -182zM6 1493h322l190 -342l172 -322h17l174 320l190 344h318l-558 -907v-586h-268v586z" />
    <glyph glyph-name="Thorn" unicode="&#xde;" horiz-adv-x="1370" 
d="M772 1262q240 0 382 -136.5t142 -359.5q0 -224 -149 -358t-383 -134h-322v-274h-266v1536h266v-274h330zM735 506q132 0 206.5 70.5t74.5 187.5q0 120 -80 188t-201 68h-293v-514h293z" />
    <glyph glyph-name="germandbls" unicode="&#xdf;" horiz-adv-x="1243" 
d="M858 831q147 -31 229 -140t82 -253q0 -203 -143.5 -320.5t-382.5 -117.5h-106v211h79q136 0 214.5 72.5t78.5 191.5q0 121 -80 187.5t-211 66.5h-34v195h26q95 0 149 55t54 145q0 89 -53.5 141t-143.5 52q-96 0 -147 -57.5t-51 -153.5v-1106h-252v852h-146v203h146v35
q0 216 124.5 330t336.5 114q200 0 320 -103t120 -268q0 -113 -54.5 -195.5t-154.5 -119.5v-17z" />
    <glyph glyph-name="agrave" unicode="&#xe0;" horiz-adv-x="1177" 
d="M567 1194l-434 244l109 182l403 -301zM68 297q0 167 117.5 259.5t316.5 92.5h266v72q0 95 -53 140.5t-148 45.5q-91 0 -146.5 -43t-60.5 -114h-247q13 164 140.5 260t324.5 96q218 0 330 -105.5t112 -291.5v-453q0 -76 59 -76q21 0 37 4v-182q-69 -16 -127 -16
q-98 0 -151 46.5t-56 137.5h-14q-32 -87 -126 -138.5t-218 -51.5q-161 0 -258.5 87t-97.5 230zM324 328q0 -72 48.5 -111t131.5 -39q120 0 192 72.5t72 189.5v47h-231q-108 0 -160.5 -43t-52.5 -116z" />
    <glyph glyph-name="aacute" unicode="&#xe1;" horiz-adv-x="1177" 
d="M565 1188l-78 125l404 303l108 -182zM68 297q0 167 117.5 259.5t316.5 92.5h266v72q0 95 -53 140.5t-148 45.5q-91 0 -146.5 -43t-60.5 -114h-247q13 164 140.5 260t324.5 96q218 0 330 -105.5t112 -291.5v-453q0 -76 59 -76q21 0 37 4v-182q-69 -16 -127 -16
q-98 0 -151 46.5t-56 137.5h-14q-32 -87 -126 -138.5t-218 -51.5q-161 0 -258.5 87t-97.5 230zM324 328q0 -72 48.5 -111t131.5 -39q120 0 192 72.5t72 189.5v47h-231q-108 0 -160.5 -43t-52.5 -116z" />
    <glyph glyph-name="acircumflex" unicode="&#xe2;" horiz-adv-x="1177" 
d="M223 1311l269 268h151l268 -268l-125 -119l-219 233l-223 -233zM68 297q0 167 117.5 259.5t316.5 92.5h266v72q0 95 -53 140.5t-148 45.5q-91 0 -146.5 -43t-60.5 -114h-247q13 164 140.5 260t324.5 96q218 0 330 -105.5t112 -291.5v-453q0 -76 59 -76q21 0 37 4v-182
q-69 -16 -127 -16q-98 0 -151 46.5t-56 137.5h-14q-32 -87 -126 -138.5t-218 -51.5q-161 0 -258.5 87t-97.5 230zM324 328q0 -72 48.5 -111t131.5 -39q120 0 192 72.5t72 189.5v47h-231q-108 0 -160.5 -43t-52.5 -116z" />
    <glyph glyph-name="atilde" unicode="&#xe3;" horiz-adv-x="1177" 
d="M698 1204q-52 -1 -99.5 19.5t-88.5 41t-78 19.5q-35 -1 -61 -19t-54 -53l-104 72q83 179 225 182q52 1 133.5 -39t126.5 -38q31 1 56.5 15t35.5 26t23 32l107 -71q-39 -91 -96.5 -138t-125.5 -49zM68 297q0 167 117.5 259.5t316.5 92.5h266v72q0 95 -53 140.5t-148 45.5
q-91 0 -146.5 -43t-60.5 -114h-247q13 164 140.5 260t324.5 96q218 0 330 -105.5t112 -291.5v-453q0 -76 59 -76q21 0 37 4v-182q-69 -16 -127 -16q-98 0 -151 46.5t-56 137.5h-14q-32 -87 -126 -138.5t-218 -51.5q-161 0 -258.5 87t-97.5 230zM324 328q0 -72 48.5 -111
t131.5 -39q120 0 192 72.5t72 189.5v47h-231q-108 0 -160.5 -43t-52.5 -116z" />
    <glyph glyph-name="adieresis" unicode="&#xe4;" horiz-adv-x="1177" 
d="M254 1225v276h209v-276h-209zM666 1225v276h211v-276h-211zM68 297q0 167 117.5 259.5t316.5 92.5h266v72q0 95 -53 140.5t-148 45.5q-91 0 -146.5 -43t-60.5 -114h-247q13 164 140.5 260t324.5 96q218 0 330 -105.5t112 -291.5v-453q0 -76 59 -76q21 0 37 4v-182
q-69 -16 -127 -16q-98 0 -151 46.5t-56 137.5h-14q-32 -87 -126 -138.5t-218 -51.5q-161 0 -258.5 87t-97.5 230zM324 328q0 -72 48.5 -111t131.5 -39q120 0 192 72.5t72 189.5v47h-231q-108 0 -160.5 -43t-52.5 -116z" />
    <glyph glyph-name="aring" unicode="&#xe5;" horiz-adv-x="1177" 
d="M1079 180q21 0 37 4v-182q-69 -16 -127 -16q-98 0 -151 46.5t-56 137.5h-14q-32 -87 -126 -138.5t-218 -51.5q-161 0 -258.5 87t-97.5 230q0 167 117.5 259.5t316.5 92.5h266v72q0 95 -53 140.5t-148 45.5q-91 0 -146.5 -43t-60.5 -114h-247q10 123 85.5 209t198.5 122
q-78 68 -78 183q0 106 69 171.5t179 65.5q108 0 177 -65.5t69 -171.5q0 -111 -72 -177q138 -36 208.5 -133.5t70.5 -244.5v-453q0 -76 59 -76zM567 1374q-46 0 -74 -30.5t-28 -79.5q0 -50 28 -80.5t74 -30.5t74.5 31t28.5 80t-28.5 79.5t-74.5 30.5zM768 440v47h-231
q-108 0 -160.5 -43t-52.5 -116q0 -72 48.5 -111t131.5 -39q120 0 192 72.5t72 189.5z" />
    <glyph glyph-name="ae" unicode="&#xe6;" horiz-adv-x="1871" 
d="M1567 338h231q-26 -164 -161 -261t-330 -97q-150 0 -261.5 56t-175.5 159q-56 -101 -165 -158t-248 -57q-172 0 -279.5 92.5t-107.5 242.5q0 162 110 255.5t314 93.5h266v47q0 94 -57.5 144t-157.5 50q-88 0 -146 -41t-65 -108h-252q15 159 141 254.5t332 95.5
q118 0 211.5 -40.5t151.5 -113.5q62 74 157.5 114t212.5 40q225 0 362.5 -139t137.5 -361q0 -77 -8 -123h-758q-2 -137 74 -217t213 -80q95 0 165.5 41.5t92.5 110.5zM1288 905q-113 0 -185 -64.5t-81 -176.5h518q-3 115 -73.5 178t-178.5 63zM762 442v43h-232
q-202 0 -202 -153q0 -71 46.5 -109.5t129.5 -38.5q119 0 188.5 71.5t69.5 186.5z" />
    <glyph glyph-name="ccedilla" unicode="&#xe7;" horiz-adv-x="1163" 
d="M1098 387q-13 -177 -141 -287.5t-324 -119.5l-39 -66q43 3 85 -11.5t73.5 -54.5t31.5 -98q0 -73 -41.5 -121.5t-102 -64t-127 -7.5t-116.5 40v127q44 -35 97.5 -44.5t92 12t38.5 70.5q0 51 -47.5 70.5t-122.5 -6.5v63l57 97q-202 29 -320 179t-118 378q0 255 145 409
t389 154q201 0 336 -108.5t150 -288.5h-254q-18 91 -81.5 136.5t-154.5 45.5q-132 0 -202 -94t-70 -256q0 -169 72.5 -258.5t197.5 -89.5q100 0 164.5 53.5t75.5 140.5h256z" />
    <glyph glyph-name="egrave" unicode="&#xe8;" horiz-adv-x="1175" 
d="M584 1194l-434 244l108 182l404 -301zM602 -20q-237 0 -382.5 153.5t-145.5 407.5q0 257 144 411t380 154q230 0 364 -134.5t134 -357.5q0 -65 -11 -129h-757q-3 -147 70.5 -227t201.5 -80q96 0 163.5 44t86.5 114h252q-28 -160 -165 -258t-335 -98zM330 659h512
q-2 119 -67.5 184.5t-182.5 65.5q-115 0 -186 -68.5t-76 -181.5z" />
    <glyph glyph-name="eacute" unicode="&#xe9;" horiz-adv-x="1175" 
d="M582 1188l-78 125l403 303l109 -182zM602 -20q-237 0 -382.5 153.5t-145.5 407.5q0 257 144 411t380 154q230 0 364 -134.5t134 -357.5q0 -65 -11 -129h-757q-3 -147 70.5 -227t201.5 -80q96 0 163.5 44t86.5 114h252q-28 -160 -165 -258t-335 -98zM330 659h512
q-2 119 -67.5 184.5t-182.5 65.5q-115 0 -186 -68.5t-76 -181.5z" />
    <glyph glyph-name="ecircumflex" unicode="&#xea;" horiz-adv-x="1175" 
d="M240 1311l268 268h151l269 -268l-125 -119l-219 233l-224 -233zM602 -20q-237 0 -382.5 153.5t-145.5 407.5q0 257 144 411t380 154q230 0 364 -134.5t134 -357.5q0 -65 -11 -129h-757q-3 -147 70.5 -227t201.5 -80q96 0 163.5 44t86.5 114h252q-28 -160 -165 -258
t-335 -98zM330 659h512q-2 119 -67.5 184.5t-182.5 65.5q-115 0 -186 -68.5t-76 -181.5z" />
    <glyph glyph-name="edieresis" unicode="&#xeb;" horiz-adv-x="1175" 
d="M270 1225v276h209v-276h-209zM682 1225v276h211v-276h-211zM602 -20q-237 0 -382.5 153.5t-145.5 407.5q0 257 144 411t380 154q230 0 364 -134.5t134 -357.5q0 -65 -11 -129h-757q-3 -147 70.5 -227t201.5 -80q96 0 163.5 44t86.5 114h252q-28 -160 -165 -258t-335 -98z
M330 659h512q-2 119 -67.5 184.5t-182.5 65.5q-115 0 -186 -68.5t-76 -181.5z" />
    <glyph glyph-name="igrave" unicode="&#xec;" horiz-adv-x="550" 
d="M279 1178l-435 243l109 183l403 -301zM150 0v1085h253v-1085h-253z" />
    <glyph glyph-name="iacute" unicode="&#xed;" horiz-adv-x="550" 
d="M276 1171l-77 125l403 303l109 -182zM150 0v1085h253v-1085h-253z" />
    <glyph glyph-name="icircumflex" unicode="&#xee;" horiz-adv-x="550" 
d="M-66 1294l269 269h151l269 -269l-125 -118l-219 233l-224 -233zM150 0v1085h253v-1085h-253z" />
    <glyph glyph-name="idieresis" unicode="&#xef;" horiz-adv-x="550" 
d="M-35 1208v277h209v-277h-209zM377 1208v277h211v-277h-211zM150 0v1085h253v-1085h-253z" />
    <glyph glyph-name="eth" unicode="&#xf0;" horiz-adv-x="1259" 
d="M88 492q0 221 137 361t357 140q65 0 129 -22l6 6l-84 82l-94 115l-263 -97v187l156 57l-160 223h312l96 -133l272 100v-184l-170 -59l158 -219q2 -4 31 -44t35 -50t31.5 -48.5t34 -56.5t28 -56t27 -65t18 -64.5t14.5 -74.5t4 -76q0 -236 -152 -385t-390 -149
q-234 0 -383.5 143.5t-149.5 368.5zM348 500q0 -136 76 -220.5t201 -84.5t201.5 85.5t76.5 221.5q0 133 -76.5 219t-199.5 86q-125 0 -202 -84.5t-77 -222.5z" />
    <glyph glyph-name="ntilde" unicode="&#xf1;" horiz-adv-x="1290" 
d="M819 1204q-52 -1 -99.5 19.5t-88.5 41t-78 19.5q-35 -1 -61 -19t-54 -53l-104 72q83 179 225 182q52 1 133.5 -39t126.5 -38q31 1 56.5 15t35.5 26t23 32l106 -71q-39 -92 -96 -138.5t-125 -48.5zM150 0v1085h223l30 -200h17q51 106 145 163.5t215 57.5
q182 0 278.5 -121.5t96.5 -327.5v-657h-256v631q0 260 -223 260q-125 0 -199 -88.5t-74 -231.5v-571h-253z" />
    <glyph glyph-name="ograve" unicode="&#xf2;" horiz-adv-x="1214" 
d="M608 1194l-434 244l109 182l403 -301zM74 541q0 252 147 408.5t387 156.5q239 0 386 -156.5t147 -408.5q0 -250 -147 -405.5t-386 -155.5q-240 0 -387 155.5t-147 405.5zM332 543q0 -161 73 -254.5t201 -93.5t201.5 94t73.5 256q0 159 -73 252.5t-202 93.5
q-127 0 -200.5 -94t-73.5 -254z" />
    <glyph glyph-name="oacute" unicode="&#xf3;" horiz-adv-x="1214" 
d="M606 1188l-78 125l404 303l108 -182zM74 541q0 252 147 408.5t387 156.5q239 0 386 -156.5t147 -408.5q0 -250 -147 -405.5t-386 -155.5q-240 0 -387 155.5t-147 405.5zM332 543q0 -161 73 -254.5t201 -93.5t201.5 94t73.5 256q0 159 -73 252.5t-202 93.5
q-127 0 -200.5 -94t-73.5 -254z" />
    <glyph glyph-name="ocircumflex" unicode="&#xf4;" horiz-adv-x="1214" 
d="M266 1311l269 268h151l268 -268l-125 -119l-219 233l-223 -233zM74 541q0 252 147 408.5t387 156.5q239 0 386 -156.5t147 -408.5q0 -250 -147 -405.5t-386 -155.5q-240 0 -387 155.5t-147 405.5zM332 543q0 -161 73 -254.5t201 -93.5t201.5 94t73.5 256q0 159 -73 252.5
t-202 93.5q-127 0 -200.5 -94t-73.5 -254z" />
    <glyph glyph-name="otilde" unicode="&#xf5;" horiz-adv-x="1214" 
d="M741 1204q-52 -1 -99.5 19.5t-88.5 41t-78 19.5q-35 -1 -61 -19t-54 -53l-104 72q83 179 225 182q52 1 133.5 -39t126.5 -38q31 1 56.5 15t35.5 26t23 32l107 -71q-39 -91 -96.5 -138t-125.5 -49zM74 541q0 252 147 408.5t387 156.5q239 0 386 -156.5t147 -408.5
q0 -250 -147 -405.5t-386 -155.5q-240 0 -387 155.5t-147 405.5zM332 543q0 -161 73 -254.5t201 -93.5t201.5 94t73.5 256q0 159 -73 252.5t-202 93.5q-127 0 -200.5 -94t-73.5 -254z" />
    <glyph glyph-name="odieresis" unicode="&#xf6;" horiz-adv-x="1214" 
d="M297 1225v276h209v-276h-209zM709 1225v276h211v-276h-211zM74 541q0 252 147 408.5t387 156.5q239 0 386 -156.5t147 -408.5q0 -250 -147 -405.5t-386 -155.5q-240 0 -387 155.5t-147 405.5zM332 543q0 -161 73 -254.5t201 -93.5t201.5 94t73.5 256q0 159 -73 252.5
t-202 93.5q-127 0 -200.5 -94t-73.5 -254z" />
    <glyph glyph-name="divide" unicode="&#xf7;" horiz-adv-x="1337" 
d="M522 870v287h287v-287h-287zM164 489v216h1007v-216h-1007zM522 43v283h287v-283h-287z" />
    <glyph glyph-name="oslash" unicode="&#xf8;" horiz-adv-x="1290" 
d="M1247 881l-119 -88q48 -115 48 -252q0 -250 -147 -405.5t-386 -155.5q-250 0 -399 165l-107 -77l-92 141l109 80q-48 115 -48 252q0 252 147.5 408.5t389.5 156.5q249 0 395 -168l115 84zM367 543q0 -49 6 -92l471 344q-74 96 -203 96q-128 0 -201 -93.5t-73 -254.5z
M915 545q0 47 -6 88l-471 -344q75 -94 203 -94q127 0 200.5 94t73.5 256z" />
    <glyph glyph-name="ugrave" unicode="&#xf9;" horiz-adv-x="1263" 
d="M633 1194l-434 244l108 182l404 -301zM1128 1085v-1085h-221l-33 199h-18q-47 -102 -139.5 -160.5t-218.5 -58.5q-175 0 -269 111t-94 310v684h256v-647q0 -245 211 -245q124 0 198 89t74 232v571h254z" />
    <glyph glyph-name="uacute" unicode="&#xfa;" horiz-adv-x="1263" 
d="M631 1188l-78 125l403 303l109 -182zM1128 1085v-1085h-221l-33 199h-18q-47 -102 -139.5 -160.5t-218.5 -58.5q-175 0 -269 111t-94 310v684h256v-647q0 -245 211 -245q124 0 198 89t74 232v571h254z" />
    <glyph glyph-name="ucircumflex" unicode="&#xfb;" horiz-adv-x="1263" 
d="M291 1311l268 268h152l268 -268l-125 -119l-219 233l-223 -233zM1128 1085v-1085h-221l-33 199h-18q-47 -102 -139.5 -160.5t-218.5 -58.5q-175 0 -269 111t-94 310v684h256v-647q0 -245 211 -245q124 0 198 89t74 232v571h254z" />
    <glyph glyph-name="udieresis" unicode="&#xfc;" horiz-adv-x="1263" 
d="M322 1225v276h208v-276h-208zM733 1225v276h211v-276h-211zM1128 1085v-1085h-221l-33 199h-18q-47 -102 -139.5 -160.5t-218.5 -58.5q-175 0 -269 111t-94 310v684h256v-647q0 -245 211 -245q124 0 198 89t74 232v571h254z" />
    <glyph glyph-name="yacute" unicode="&#xfd;" horiz-adv-x="1024" 
d="M504 1190l-78 125l403 303l109 -182zM-12 1085h274l154 -462l96 -320h14l95 320l143 462h266l-387 -1103q-118 -344 -463 -344q-59 0 -121 10v211q51 -9 99 -9q52 0 92.5 14t65 38.5t38 47t21.5 48.5l18 53z" />
    <glyph glyph-name="thorn" unicode="&#xfe;" horiz-adv-x="1306" 
d="M150 1493h253v-602h17q42 98 139.5 156.5t222.5 58.5q209 0 330 -152t121 -415q0 -257 -124.5 -408t-328.5 -151q-130 0 -226 58.5t-134 158.5h-17v-539h-253v1835zM403 596v-109q0 -131 80 -212.5t207 -81.5q137 0 211 94t74 254q0 172 -75.5 261t-205.5 89
q-127 0 -209 -83t-82 -212z" />
    <glyph glyph-name="ydieresis" unicode="&#xff;" horiz-adv-x="1024" 
d="M195 1227v276h208v-276h-208zM606 1227v276h211v-276h-211zM-12 1085h274l154 -462l96 -320h14l95 320l143 462h266l-387 -1103q-118 -344 -463 -344q-59 0 -121 10v211q51 -9 99 -9q52 0 92.5 14t65 38.5t38 47t21.5 48.5l18 53z" />
    <glyph glyph-name="Amacron" unicode="&#x100;" horiz-adv-x="1415" 
d="M1044 1798v-188h-690v188h690zM1118 0l-104 299h-627l-106 -299h-279l543 1493h311l555 -1493h-293zM461 510h479l-72 207l-157 497h-13l-163 -497z" />
    <glyph glyph-name="amacron" unicode="&#x101;" horiz-adv-x="1177" 
d="M219 1219v188h690v-188h-690zM68 297q0 167 117.5 259.5t316.5 92.5h266v72q0 95 -53 140.5t-148 45.5q-91 0 -146.5 -43t-60.5 -114h-247q13 164 140.5 260t324.5 96q218 0 330 -105.5t112 -291.5v-453q0 -76 59 -76q21 0 37 4v-182q-69 -16 -127 -16q-98 0 -151 46.5
t-56 137.5h-14q-32 -87 -126 -138.5t-218 -51.5q-161 0 -258.5 87t-97.5 230zM324 328q0 -72 48.5 -111t131.5 -39q120 0 192 72.5t72 189.5v47h-231q-108 0 -160.5 -43t-52.5 -116z" />
    <glyph glyph-name="Abreve" unicode="&#x102;" horiz-adv-x="1415" 
d="M698 1593q-145 0 -229 88t-84 226h160q0 -79 41.5 -123.5t111.5 -44.5t113 45t43 123h162q0 -139 -85.5 -226.5t-232.5 -87.5zM1118 0l-104 299h-627l-106 -299h-279l543 1493h311l555 -1493h-293zM461 510h479l-72 207l-157 497h-13l-163 -497z" />
    <glyph glyph-name="abreve" unicode="&#x103;" horiz-adv-x="1177" 
d="M883 1516q0 -139 -85.5 -226.5t-232.5 -87.5q-145 0 -229 88t-84 226h160q0 -79 41.5 -123.5t111.5 -44.5t113 45t43 123h162zM68 297q0 167 117.5 259.5t316.5 92.5h266v72q0 95 -53 140.5t-148 45.5q-91 0 -146.5 -43t-60.5 -114h-247q13 164 140.5 260t324.5 96
q218 0 330 -105.5t112 -291.5v-453q0 -76 59 -76q21 0 37 4v-182q-69 -16 -127 -16q-98 0 -151 46.5t-56 137.5h-14q-32 -87 -126 -138.5t-218 -51.5q-161 0 -258.5 87t-97.5 230zM324 328q0 -72 48.5 -111t131.5 -39q120 0 192 72.5t72 189.5v47h-231q-108 0 -160.5 -43
t-52.5 -116z" />
    <glyph glyph-name="Aogonek" unicode="&#x104;" horiz-adv-x="1415" 
d="M1362 -254q57 0 121 25v-140q-73 -30 -168 -30q-108 1 -174 58t-66 148q0 117 92 193h-49l-104 299h-627l-106 -299h-279l543 1493h311l553 -1485l4 -8q-180 -39 -180 -160q0 -45 34.5 -69.5t94.5 -24.5zM461 510h479l-72 207l-157 497h-13l-163 -497z" />
    <glyph glyph-name="aogonek" unicode="&#x105;" horiz-adv-x="1177" 
d="M1073 -254q57 0 121 25v-140q-74 -30 -168 -30q-108 1 -174 58t-66 148q0 120 97 197q-98 42 -101 166h-14q-32 -87 -126 -138.5t-218 -51.5q-161 0 -258.5 87t-97.5 230q0 167 117.5 259.5t316.5 92.5h266v72q0 95 -53 140.5t-148 45.5q-91 0 -146.5 -43t-60.5 -114
h-247q13 164 140.5 260t324.5 96q218 0 330 -105.5t112 -291.5v-453q0 -76 59 -76q21 0 37 4v-172l8 -12q-180 -39 -180 -160q0 -45 34.5 -69.5t94.5 -24.5zM768 440v47h-231q-108 0 -160.5 -43t-52.5 -116q0 -72 48.5 -111t131.5 -39q120 0 192 72.5t72 189.5z" />
    <glyph glyph-name="Cacute" unicode="&#x106;" horiz-adv-x="1542" 
d="M772 1579l-78 125l404 303l108 -182zM1458 504q-19 -156 -109 -275.5t-233 -184t-319 -64.5q-326 0 -521.5 210t-195.5 555q0 227 88.5 400.5t251.5 269.5t377 96q268 0 448.5 -142t212.5 -378h-278q-32 133 -135.5 208t-249.5 75q-199 0 -316 -143t-117 -388
q0 -247 115.5 -386.5t313.5 -139.5q156 0 258.5 78t130.5 209h278z" />
    <glyph glyph-name="cacute" unicode="&#x107;" horiz-adv-x="1163" 
d="M584 1188l-78 125l403 303l109 -182zM1098 387q-13 -183 -150 -295t-344 -112q-241 0 -385.5 154t-144.5 409t145 409t389 154q201 0 336 -108.5t150 -288.5h-254q-18 91 -81.5 136.5t-154.5 45.5q-132 0 -202 -94t-70 -256q0 -169 72.5 -258.5t197.5 -89.5
q100 0 164.5 53.5t75.5 140.5h256z" />
    <glyph glyph-name="Cdotaccent" unicode="&#x10a;" horiz-adv-x="1542" 
d="M670 1616v276h209v-276h-209zM1458 504q-19 -156 -109 -275.5t-233 -184t-319 -64.5q-326 0 -521.5 210t-195.5 555q0 227 88.5 400.5t251.5 269.5t377 96q268 0 448.5 -142t212.5 -378h-278q-32 133 -135.5 208t-249.5 75q-199 0 -316 -143t-117 -388
q0 -247 115.5 -386.5t313.5 -139.5q156 0 258.5 78t130.5 209h278z" />
    <glyph glyph-name="cdotaccent" unicode="&#x10b;" horiz-adv-x="1163" 
d="M481 1225v276h209v-276h-209zM1098 387q-13 -183 -150 -295t-344 -112q-241 0 -385.5 154t-144.5 409t145 409t389 154q201 0 336 -108.5t150 -288.5h-254q-18 91 -81.5 136.5t-154.5 45.5q-132 0 -202 -94t-70 -256q0 -169 72.5 -258.5t197.5 -89.5q100 0 164.5 53.5
t75.5 140.5h256z" />
    <glyph glyph-name="Ccaron" unicode="&#x10c;" horiz-adv-x="1542" 
d="M428 1884l123 117l221 -236l219 236l125 -117l-268 -272h-152zM1458 504q-19 -156 -109 -275.5t-233 -184t-319 -64.5q-326 0 -521.5 210t-195.5 555q0 227 88.5 400.5t251.5 269.5t377 96q268 0 448.5 -142t212.5 -378h-278q-32 133 -135.5 208t-249.5 75
q-199 0 -316 -143t-117 -388q0 -247 115.5 -386.5t313.5 -139.5q156 0 258.5 78t130.5 209h278z" />
    <glyph glyph-name="ccaron" unicode="&#x10d;" horiz-adv-x="1163" 
d="M240 1493l122 117l222 -236l219 236l125 -117l-269 -272h-151zM1098 387q-13 -183 -150 -295t-344 -112q-241 0 -385.5 154t-144.5 409t145 409t389 154q201 0 336 -108.5t150 -288.5h-254q-18 91 -81.5 136.5t-154.5 45.5q-132 0 -202 -94t-70 -256q0 -169 72.5 -258.5
t197.5 -89.5q100 0 164.5 53.5t75.5 140.5h256z" />
    <glyph glyph-name="Dcaron" unicode="&#x10e;" horiz-adv-x="1536" 
d="M328 1884l123 117l221 -236l219 236l125 -117l-268 -272h-152zM180 0v1493h600q214 0 368 -95t231 -262.5t77 -390.5t-77.5 -390t-231.5 -261t-367 -94h-600zM446 236h299q202 0 315.5 128t113.5 386t-114.5 382.5t-314.5 124.5h-299v-1021z" />
    <glyph glyph-name="dcaron" unicode="&#x10f;" horiz-adv-x="1341" 
d="M1163 0h-225l-29 193h-14q-44 -100 -143 -156.5t-224 -56.5q-207 0 -329.5 150.5t-122.5 406.5q0 262 124 415.5t330 153.5q133 0 228 -64t137 -168h14v639h254v-1513zM1311 1059v84q45 0 75.5 10.5t44 30.5t18.5 39.5t5 46.5l2 4h-125v239h242v-231q0 -112 -70 -167.5
t-192 -55.5zM909 487v103q0 140 -81 220.5t-210 80.5q-136 0 -209 -95t-73 -259q0 -167 74.5 -255.5t203.5 -88.5q133 0 214 82.5t81 211.5z" />
    <glyph glyph-name="Dcroat" unicode="&#x110;" horiz-adv-x="1536" 
d="M780 1493q214 0 368 -95t231 -262.5t77 -390.5t-77.5 -390t-231.5 -261t-367 -94h-600v666h-184v211h184v616h600zM745 236q202 0 315.5 128t113.5 386t-114.5 382.5t-314.5 124.5h-299v-380h244v-211h-244v-430h299z" />
    <glyph glyph-name="dcroat" unicode="&#x111;" horiz-adv-x="1308" 
d="M1366 1333v-180h-205v-1153h-225l-31 193h-14q-44 -100 -143 -156.5t-224 -56.5q-207 0 -328.5 150.5t-121.5 406.5q0 262 124 415.5t328 153.5q134 0 228.5 -63.5t136.5 -168.5h14v279h-266v180h266v180h256v-180h205zM905 487v103q0 140 -80.5 220.5t-208.5 80.5
q-137 0 -209.5 -94.5t-72.5 -259.5q0 -167 74.5 -255.5t203.5 -88.5q132 0 212.5 82.5t80.5 211.5z" />
    <glyph glyph-name="Emacron" unicode="&#x112;" horiz-adv-x="1316" 
d="M330 1610v188h690v-188h-690zM180 0v1493h1028v-236h-762v-374h660v-221h-660v-426h762v-236h-1028z" />
    <glyph glyph-name="emacron" unicode="&#x113;" horiz-adv-x="1175" 
d="M238 1219v188h690v-188h-690zM602 -20q-237 0 -382.5 153.5t-145.5 407.5q0 257 144 411t380 154q230 0 364 -134.5t134 -357.5q0 -65 -11 -129h-757q-3 -147 70.5 -227t201.5 -80q96 0 163.5 44t86.5 114h252q-28 -160 -165 -258t-335 -98zM330 659h512
q-2 119 -67.5 184.5t-182.5 65.5q-115 0 -186 -68.5t-76 -181.5z" />
    <glyph glyph-name="Edotaccent" unicode="&#x116;" horiz-adv-x="1316" 
d="M571 1616v276h209v-276h-209zM180 0v1493h1028v-236h-762v-374h660v-221h-660v-426h762v-236h-1028z" />
    <glyph glyph-name="edotaccent" unicode="&#x117;" horiz-adv-x="1175" 
d="M479 1225v276h209v-276h-209zM602 -20q-237 0 -382.5 153.5t-145.5 407.5q0 257 144 411t380 154q230 0 364 -134.5t134 -357.5q0 -65 -11 -129h-757q-3 -147 70.5 -227t201.5 -80q96 0 163.5 44t86.5 114h252q-28 -160 -165 -258t-335 -98zM330 659h512
q-2 119 -67.5 184.5t-182.5 65.5q-115 0 -186 -68.5t-76 -181.5z" />
    <glyph glyph-name="Eogonek" unicode="&#x118;" horiz-adv-x="1316" 
d="M1159 -254q57 0 121 25v-140q-74 -30 -168 -30q-108 1 -174 58t-66 148q0 116 93 193h-785v1493h1028v-236h-762v-374h660v-221h-660v-426h762v-232l2 -4q-180 -39 -180 -160q0 -45 34.5 -69.5t94.5 -24.5z" />
    <glyph glyph-name="eogonek" unicode="&#x119;" horiz-adv-x="1175" 
d="M1102 336q-22 -123 -108.5 -211t-219.5 -123v-2q-180 -39 -180 -160q0 -45 34.5 -69.5t94.5 -24.5q57 0 121 25v-140q-74 -30 -168 -30q-108 1 -174 58t-66 148q0 103 76 179q-200 30 -319 178.5t-119 376.5q0 257 144 411t380 154q230 0 364 -134.5t134 -357.5
q0 -65 -11 -129h-757q-3 -147 70.5 -227t201.5 -80q96 0 163.5 44t86.5 114h252zM592 909q-115 0 -186 -68.5t-76 -181.5h512q-2 119 -67.5 184.5t-182.5 65.5z" />
    <glyph glyph-name="Ecaron" unicode="&#x11a;" horiz-adv-x="1316" 
d="M330 1884l123 117l221 -236l219 236l125 -117l-268 -272h-152zM180 0v1493h1028v-236h-762v-374h660v-221h-660v-426h762v-236h-1028z" />
    <glyph glyph-name="ecaron" unicode="&#x11b;" horiz-adv-x="1175" 
d="M238 1493l122 117l222 -236l219 236l125 -117l-269 -272h-151zM602 -20q-237 0 -382.5 153.5t-145.5 407.5q0 257 144 411t380 154q230 0 364 -134.5t134 -357.5q0 -65 -11 -129h-757q-3 -147 70.5 -227t201.5 -80q96 0 163.5 44t86.5 114h252q-28 -160 -165 -258
t-335 -98zM330 659h512q-2 119 -67.5 184.5t-182.5 65.5q-115 0 -186 -68.5t-76 -181.5z" />
    <glyph glyph-name="Gbreve" unicode="&#x11e;" horiz-adv-x="1644" 
d="M795 1593q-145 0 -229.5 88t-84.5 226h160q0 -78 42 -123t112 -45t112.5 45t42.5 123h162q0 -139 -85 -226.5t-232 -87.5zM721 807h778v-807h-219l-18 225h-15q-66 -114 -199.5 -179.5t-299.5 -65.5q-298 0 -483 204.5t-185 546.5q0 354 197.5 567t525.5 213
q255 0 432.5 -131.5t206.5 -343.5h-279q-30 112 -128 175t-236 63q-210 0 -323.5 -145.5t-113.5 -397.5q0 -257 115.5 -388.5t310.5 -131.5q180 0 294 106t128 273h-489v217z" />
    <glyph glyph-name="gbreve" unicode="&#x11f;" horiz-adv-x="1126" 
d="M819 1528q0 -139 -85 -226.5t-232 -87.5q-145 0 -229.5 88t-84.5 226h160q0 -78 42 -123t112 -45t112.5 45t42.5 123h162zM51 -121q0 76 45 132t119 75v16q-53 19 -84 61.5t-31 96.5q0 67 41.5 117t112.5 72v14q-78 46 -120 121t-42 166q0 160 119 258t309 98
q112 0 187 -35q33 96 125 154.5t217 58.5v-199q-70 0 -125 -24.5t-72 -63.5q113 -101 113 -256q0 -158 -116.5 -255t-305.5 -97q-72 0 -140 14q-34 -7 -52.5 -29t-18.5 -52q0 -82 137 -82h262q165 0 255.5 -78t90.5 -213q0 -168 -146.5 -250t-408.5 -82q-235 0 -353 70
t-118 192zM342 748q0 -85 51 -134t135 -49q88 0 138.5 50t50.5 133q0 85 -51.5 133.5t-137.5 48.5q-87 0 -136.5 -49.5t-49.5 -132.5zM285 -74q0 -64 60.5 -94.5t189.5 -30.5q290 0 290 138q0 100 -131 100h-264q-71 0 -108 -30t-37 -83z" />
    <glyph glyph-name="Gdotaccent" unicode="&#x120;" horiz-adv-x="1644" 
d="M901 1892v-276h-209v276h209zM721 807h778v-807h-219l-18 225h-15q-66 -114 -199.5 -179.5t-299.5 -65.5q-298 0 -483 204.5t-185 546.5q0 354 197.5 567t525.5 213q255 0 432.5 -131.5t206.5 -343.5h-279q-30 112 -128 175t-236 63q-210 0 -323.5 -145.5t-113.5 -397.5
q0 -257 115.5 -388.5t310.5 -131.5q180 0 294 106t128 273h-489v217z" />
    <glyph glyph-name="gdotaccent" unicode="&#x121;" horiz-adv-x="1126" 
d="M399 1237v276h209v-276h-209zM51 -121q0 76 45 132t119 75v16q-53 19 -84 61.5t-31 96.5q0 67 41.5 117t112.5 72v14q-78 46 -120 121t-42 166q0 160 119 258t309 98q112 0 187 -35q33 96 125 154.5t217 58.5v-199q-70 0 -125 -24.5t-72 -63.5q113 -101 113 -256
q0 -158 -116.5 -255t-305.5 -97q-72 0 -140 14q-34 -7 -52.5 -29t-18.5 -52q0 -82 137 -82h262q165 0 255.5 -78t90.5 -213q0 -168 -146.5 -250t-408.5 -82q-235 0 -353 70t-118 192zM342 748q0 -85 51 -134t135 -49q88 0 138.5 50t50.5 133q0 85 -51.5 133.5t-137.5 48.5
q-87 0 -136.5 -49.5t-49.5 -132.5zM285 -74q0 -64 60.5 -94.5t189.5 -30.5q290 0 290 138q0 100 -131 100h-264q-71 0 -108 -30t-37 -83z" />
    <glyph glyph-name="uni0122" unicode="&#x122;" horiz-adv-x="1644" 
d="M721 807h778v-807h-219l-18 225h-15q-66 -114 -199.5 -179.5t-299.5 -65.5q-298 0 -483 204.5t-185 546.5q0 354 197.5 567t525.5 213q255 0 432.5 -131.5t206.5 -343.5h-279q-30 112 -128 175t-236 63q-210 0 -323.5 -145.5t-113.5 -397.5q0 -257 115.5 -388.5
t310.5 -131.5q180 0 294 106t128 273h-489v217zM686 -352v237h221v-239q0 -191 -211 -191v74q101 0 101 92v27h-111z" />
    <glyph glyph-name="uni0123" unicode="&#x123;" horiz-adv-x="1126" 
d="M602 1700v-74q-100 0 -100 -94v-55h110v-236h-219v268q0 191 209 191zM51 -121q0 76 45 132t119 75v16q-53 19 -84 61.5t-31 96.5q0 67 41.5 117t112.5 72v14q-78 46 -120 121t-42 166q0 160 119 258t309 98q112 0 187 -35q33 96 125 154.5t217 58.5v-199
q-70 0 -125 -24.5t-72 -63.5q113 -101 113 -256q0 -158 -116.5 -255t-305.5 -97q-72 0 -140 14q-34 -7 -52.5 -29t-18.5 -52q0 -82 137 -82h262q165 0 255.5 -78t90.5 -213q0 -168 -146.5 -250t-408.5 -82q-235 0 -353 70t-118 192zM342 748q0 -85 51 -134t135 -49
q88 0 138.5 50t50.5 133q0 85 -51.5 133.5t-137.5 48.5q-87 0 -136.5 -49.5t-49.5 -132.5zM285 -74q0 -64 60.5 -94.5t189.5 -30.5q290 0 290 138q0 100 -131 100h-264q-71 0 -108 -30t-37 -83z" />
    <glyph glyph-name="Hbar" unicode="&#x126;" horiz-adv-x="1648" 
d="M1653 1319v-195h-185v-1124h-268v653h-754v-653h-266v1124h-137v195h137v174h266v-174h754v174h268v-174h185zM1200 870v254h-754v-254h754z" />
    <glyph glyph-name="hbar" unicode="&#x127;" horiz-adv-x="1290" 
d="M780 1106q182 0 278.5 -120.5t96.5 -326.5v-659h-256v633q0 130 -57.5 194t-165.5 64q-125 0 -199 -86t-74 -227v-578h-253v1153h-183v180h183v180h253v-180h291v-180h-291v-264h17q49 104 143.5 160.5t216.5 56.5z" />
    <glyph glyph-name="Imacron" unicode="&#x12a;" horiz-adv-x="626" 
d="M-31 1610v188h690v-188h-690zM446 0h-266v1493h266v-1493z" />
    <glyph glyph-name="imacron" unicode="&#x12b;" horiz-adv-x="550" 
d="M-70 1202v189h691v-189h-691zM150 0v1085h253v-1085h-253z" />
    <glyph glyph-name="Iogonek" unicode="&#x12e;" horiz-adv-x="626" 
d="M377 -254q57 0 121 25v-140q-74 -30 -168 -30q-108 1 -174 58t-66 148q0 117 92 193h-2v1493h266v-1493h-18q-180 -39 -180 -160q0 -45 34.5 -69.5t94.5 -24.5z" />
    <glyph glyph-name="iogonek" unicode="&#x12f;" horiz-adv-x="550" 
d="M381 1485v-277h-209v277h209zM352 -254q57 0 121 25v-140q-74 -30 -168 -30q-108 1 -173.5 58t-65.5 148q0 117 92 193h-8v1085h253v-1085q-180 -39 -180 -160q0 -45 34.5 -69.5t94.5 -24.5z" />
    <glyph glyph-name="Idotaccent" unicode="&#x130;" horiz-adv-x="626" 
d="M188 1616v276h252v-276h-252zM446 0h-266v1493h266v-1493z" />
    <glyph glyph-name="dotlessi" unicode="&#x131;" horiz-adv-x="550" 
d="M150 0v1085h253v-1085h-253z" />
    <glyph glyph-name="Jcircumflex" unicode="&#x134;" horiz-adv-x="833" 
d="M188 1702l269 268h151l269 -268l-125 -119l-220 234l-223 -234zM666 432q0 -121 -32.5 -209t-94 -139.5t-140.5 -75.5t-180 -24q-130 0 -186 16v225q53 -12 141 -12q110 0 166.5 58.5t56.5 187.5v1034h269v-1061z" />
    <glyph glyph-name="jcircumflex" unicode="&#x135;" horiz-adv-x="557" 
d="M-59 1294l268 269h151l269 -269l-125 -118l-219 233l-224 -233zM72 -365q-84 0 -133 11v194q27 -6 57 -6q96 0 127 40.5t31 129.5v1081h254v-1099q0 -162 -80 -256.5t-256 -94.5z" />
    <glyph glyph-name="uni0136" unicode="&#x136;" horiz-adv-x="1435" 
d="M868 844l562 -844h-324l-420 629l-240 -289v-340h-266v1493h266v-778l637 778h326zM647 -352v237h221v-239q0 -191 -211 -191v74q101 0 101 92v27h-111z" />
    <glyph glyph-name="uni0137" unicode="&#x137;" horiz-adv-x="1193" 
d="M741 664l433 -664h-291l-318 483l-159 -164v-319h-256v1513h256v-878l430 450h317zM608 -352v237h221v-239q0 -191 -211 -191v74q101 0 101 92v27h-111z" />
    <glyph glyph-name="Lacute" unicode="&#x139;" horiz-adv-x="1169" 
d="M418 1579l-78 125l403 303l109 -182zM180 0v1493h266v-1251h650v-242h-916z" />
    <glyph glyph-name="lacute" unicode="&#x13a;" horiz-adv-x="550" 
d="M276 1602l-77 124l403 304l109 -183zM150 0v1513h251v-1513h-251z" />
    <glyph glyph-name="uni013B" unicode="&#x13b;" horiz-adv-x="1169" 
d="M180 0v1493h266v-1251h650v-242h-916zM539 -545v74q100 0 100 92v27h-111v237h222v-239q0 -191 -211 -191z" />
    <glyph glyph-name="uni013C" unicode="&#x13c;" horiz-adv-x="550" 
d="M150 0v1513h251v-1513h-251zM178 -545v74q101 0 101 92v27h-111v237h221v-239q0 -191 -211 -191z" />
    <glyph glyph-name="Lcaron" unicode="&#x13d;" horiz-adv-x="1179" 
d="M186 0v1493h269v-1251h647v-242h-916zM674 975v92q149 0 149 137v31h-125v256h244v-283q0 -109 -72.5 -171t-195.5 -62z" />
    <glyph glyph-name="lcaron" unicode="&#x13e;" horiz-adv-x="550" 
d="M-66 1907l123 116l222 -235l219 235l125 -116l-269 -273h-151zM150 0v1513h251v-1513h-251z" />
    <glyph glyph-name="Ldot" unicode="&#x13f;" horiz-adv-x="1230" 
d="M180 0v1493h266v-1251h650v-242h-916zM655 844q0 70 48 120t114 50q67 0 115.5 -50.5t48.5 -119.5q0 -68 -48.5 -117t-115.5 -49q-66 0 -114 48.5t-48 117.5z" />
    <glyph glyph-name="ldot" unicode="&#x140;" horiz-adv-x="921" 
d="M150 0v1513h251v-1513h-251zM575 776q0 70 48 120t114 50q69 0 117.5 -50.5t48.5 -119.5t-48.5 -118.5t-117.5 -49.5q-66 0 -114 49.5t-48 118.5z" />
    <glyph glyph-name="Lslash" unicode="&#x141;" horiz-adv-x="1163" 
d="M440 242h650v-242h-918v631l-135 -47v231l135 47v631h268v-535l361 127v-231l-361 -127v-485z" />
    <glyph glyph-name="lslash" unicode="&#x142;" horiz-adv-x="587" 
d="M549 1085v-229l-129 -49v-807h-252v715l-129 -49v229l129 49v569h252v-477z" />
    <glyph glyph-name="Nacute" unicode="&#x143;" horiz-adv-x="1619" 
d="M836 1579l-78 125l403 303l109 -182zM180 0v1493h316l684 -1128h12l-16 438v690h266v-1493h-318l-680 1124h-12l14 -424v-700h-266z" />
    <glyph glyph-name="nacute" unicode="&#x144;" horiz-adv-x="1290" 
d="M686 1188l-78 125l404 303l108 -182zM150 0v1085h223l30 -200h17q51 106 145 163.5t215 57.5q182 0 278.5 -121.5t96.5 -327.5v-657h-256v631q0 260 -223 260q-125 0 -199 -88.5t-74 -231.5v-571h-253z" />
    <glyph glyph-name="uni0145" unicode="&#x145;" horiz-adv-x="1619" 
d="M180 0v1493h316l684 -1128h12l-16 438v690h266v-1493h-318l-680 1124h-12l14 -424v-700h-266zM737 -545v74q101 0 101 92v27h-111v237h221v-239q0 -191 -211 -191z" />
    <glyph glyph-name="uni0146" unicode="&#x146;" horiz-adv-x="1290" 
d="M150 0v1085h223l30 -200h17q51 106 145 163.5t215 57.5q182 0 278.5 -121.5t96.5 -327.5v-657h-256v631q0 260 -223 260q-125 0 -199 -88.5t-74 -231.5v-571h-253zM549 -545v74q100 0 100 92v27h-110v237h221v-239q0 -191 -211 -191z" />
    <glyph glyph-name="Ncaron" unicode="&#x147;" horiz-adv-x="1619" 
d="M494 1884l122 117l222 -236l219 236l125 -117l-269 -272h-151zM180 0v1493h316l684 -1128h12l-16 438v690h266v-1493h-318l-680 1124h-12l14 -424v-700h-266z" />
    <glyph glyph-name="ncaron" unicode="&#x148;" horiz-adv-x="1290" 
d="M342 1493l123 117l221 -236l219 236l125 -117l-268 -272h-152zM150 0v1085h223l30 -200h17q51 106 145 163.5t215 57.5q182 0 278.5 -121.5t96.5 -327.5v-657h-256v631q0 260 -223 260q-125 0 -199 -88.5t-74 -231.5v-571h-253z" />
    <glyph glyph-name="Eng" unicode="&#x14a;" horiz-adv-x="1619" 
d="M1176 1493h266v-1548q0 -147 -88 -221t-242 -74q-68 0 -139 16v166q30 -6 63 -6q140 0 140 139v35h-52l-680 1124h-12l14 -424v-700h-266v1493h316l684 -1128h12l-16 438v690z" />
    <glyph glyph-name="eng" unicode="&#x14b;" horiz-adv-x="1290" 
d="M780 1106q182 0 278.5 -121.5t96.5 -327.5v-712q0 -150 -89 -227.5t-241 -77.5q-81 0 -139 12v190q24 -6 68 -6q42 0 70.5 10t43 22.5t22 38.5t8.5 43t1 50v631q0 260 -223 260q-125 0 -199 -88.5t-74 -231.5v-571h-253v1085h223l30 -200h17q51 106 145 163.5t215 57.5z
" />
    <glyph glyph-name="Omacron" unicode="&#x14c;" horiz-adv-x="1587" 
d="M446 1610v188h691v-188h-691zM80 745q0 234 89 408t250 266t374 92q220 0 382.5 -96t247 -268t84.5 -399q0 -355 -194.5 -561.5t-519.5 -206.5q-219 0 -381.5 96.5t-247 269t-84.5 399.5zM362 748q0 -246 117 -387.5t314 -141.5q202 0 317 143.5t115 382.5
q0 243 -118 386t-314 143q-199 0 -315 -144t-116 -382z" />
    <glyph glyph-name="omacron" unicode="&#x14d;" horiz-adv-x="1214" 
d="M262 1219v188h690v-188h-690zM74 541q0 252 147 408.5t387 156.5q239 0 386 -156.5t147 -408.5q0 -250 -147 -405.5t-386 -155.5q-240 0 -387 155.5t-147 405.5zM332 543q0 -161 73 -254.5t201 -93.5t201.5 94t73.5 256q0 159 -73 252.5t-202 93.5q-127 0 -200.5 -94
t-73.5 -254z" />
    <glyph glyph-name="Ohungarumlaut" unicode="&#x150;" horiz-adv-x="1587" 
d="M561 1585l-78 119l394 305l108 -178zM1026 1585l-76 119l391 305l113 -178zM80 745q0 234 89 408t250 266t374 92q220 0 382.5 -96t247 -268t84.5 -399q0 -355 -194.5 -561.5t-519.5 -206.5q-219 0 -381.5 96.5t-247 269t-84.5 399.5zM362 748q0 -246 117 -387.5
t314 -141.5q202 0 317 143.5t115 382.5q0 243 -118 386t-314 143q-199 0 -315 -144t-116 -382z" />
    <glyph glyph-name="ohungarumlaut" unicode="&#x151;" horiz-adv-x="1214" 
d="M377 1194l-78 119l393 305l109 -178zM842 1194l-76 119l391 305l113 -178zM74 541q0 252 147 408.5t387 156.5q239 0 386 -156.5t147 -408.5q0 -250 -147 -405.5t-386 -155.5q-240 0 -387 155.5t-147 405.5zM332 543q0 -161 73 -254.5t201 -93.5t201.5 94t73.5 256
q0 159 -73 252.5t-202 93.5q-127 0 -200.5 -94t-73.5 -254z" />
    <glyph glyph-name="OE" unicode="&#x152;" horiz-adv-x="1955" 
d="M80 748q0 332 201.5 538.5t527.5 206.5h1038v-236h-700v-403h506v-219h-506v-397h700v-238h-1038q-215 0 -381 94t-257 264t-91 390zM362 748q0 -227 123.5 -368.5t323.5 -141.5h74v1017h-74q-200 0 -323.5 -141t-123.5 -366z" />
    <glyph glyph-name="oe" unicode="&#x153;" horiz-adv-x="2015" 
d="M1690 336h252q-28 -160 -165 -258t-335 -98q-133 0 -240 49.5t-176 142.5q-71 -92 -178.5 -142t-239.5 -50q-240 0 -387 155.5t-147 405.5q0 252 147 408.5t387 156.5q132 0 239 -50.5t179 -142.5q70 93 175.5 143t236.5 50q230 0 363.5 -134.5t133.5 -357.5
q0 -71 -10 -129h-758q-3 -147 71 -227t202 -80q96 0 163.5 44t86.5 114zM1432 909q-115 0 -186.5 -68.5t-76.5 -181.5h512q-2 119 -67 184.5t-182 65.5zM606 195q128 0 201.5 94t73.5 256q0 159 -73 252.5t-202 93.5q-127 0 -200.5 -94t-73.5 -254q0 -161 73 -254.5
t201 -93.5z" />
    <glyph glyph-name="Racute" unicode="&#x154;" horiz-adv-x="1482" 
d="M762 1579l-78 125l403 303l109 -182zM180 0v1493h703q230 0 350.5 -116.5t120.5 -319.5q0 -127 -62.5 -222.5t-171.5 -148.5v-14q209 -52 209 -291v-209q0 -117 23 -172h-275q-22 48 -22 180v156q0 108 -47 159.5t-168 51.5h-394v-547h-266zM446 780h345q130 0 204 67
t74 179q0 234 -258 234h-365v-480z" />
    <glyph glyph-name="racute" unicode="&#x155;" horiz-adv-x="778" 
d="M444 1188l-77 125l403 303l109 -182zM150 0v1085h221l32 -211h13q83 230 342 230v-223q-178 0 -266.5 -104t-88.5 -298v-479h-253z" />
    <glyph glyph-name="uni0156" unicode="&#x156;" horiz-adv-x="1482" 
d="M180 0v1493h703q230 0 350.5 -116.5t120.5 -319.5q0 -127 -62.5 -222.5t-171.5 -148.5v-14q209 -52 209 -291v-209q0 -117 23 -172h-275q-22 48 -22 180v156q0 108 -47 159.5t-168 51.5h-394v-547h-266zM446 780h345q130 0 204 67t74 179q0 234 -258 234h-365v-480z
M682 -545v74q100 0 100 92v27h-110v237h221v-239q0 -191 -211 -191z" />
    <glyph glyph-name="uni0157" unicode="&#x157;" horiz-adv-x="778" 
d="M150 0v1085h221l32 -211h13q83 230 342 230v-223q-178 0 -266.5 -104t-88.5 -298v-479h-253zM176 -545v74q100 0 100 92v27h-110v237h221v-239q0 -191 -211 -191z" />
    <glyph glyph-name="Rcaron" unicode="&#x158;" horiz-adv-x="1482" 
d="M418 1884l123 117l221 -236l219 236l125 -117l-268 -272h-152zM180 0v1493h703q230 0 350.5 -116.5t120.5 -319.5q0 -127 -62.5 -222.5t-171.5 -148.5v-14q209 -52 209 -291v-209q0 -117 23 -172h-275q-22 48 -22 180v156q0 108 -47 159.5t-168 51.5h-394v-547h-266z
M446 780h345q130 0 204 67t74 179q0 234 -258 234h-365v-480z" />
    <glyph glyph-name="rcaron" unicode="&#x159;" horiz-adv-x="778" 
d="M100 1493l123 117l221 -236l220 236l124 -117l-268 -272h-151zM150 0v1085h221l32 -211h13q83 230 342 230v-223q-178 0 -266.5 -104t-88.5 -298v-479h-253z" />
    <glyph glyph-name="Sacute" unicode="&#x15a;" horiz-adv-x="1378" 
d="M676 1579l-78 125l403 303l109 -182zM354 465q6 -131 92 -200.5t246 -69.5q144 0 223.5 60.5t79.5 160.5q0 43 -16.5 77.5t-36.5 53.5t-53.5 34t-52.5 20t-48 11l-251 54q-34 7 -50.5 11t-56.5 15.5t-64 21.5t-61.5 29t-61.5 39t-52 50t-44 64t-27 79t-11 96
q0 199 153.5 320.5t405.5 121.5q258 0 407 -119.5t154 -320.5h-277q-7 112 -86 169.5t-211 57.5q-127 0 -195.5 -51.5t-68.5 -140.5q0 -30 9.5 -55t21.5 -42t35.5 -32t39.5 -23.5t46 -17t42 -11.5t40 -9l256 -52q85 -17 154.5 -48.5t126.5 -81t88.5 -124t31.5 -168.5
q0 -219 -161.5 -341.5t-432.5 -122.5q-287 0 -447.5 133t-162.5 352h276z" />
    <glyph glyph-name="sacute" unicode="&#x15b;" horiz-adv-x="1073" 
d="M541 1188l-78 125l403 303l109 -182zM324 336q0 -81 58.5 -125.5t160.5 -44.5q91 0 141.5 37t50.5 102q0 101 -125 121l-211 39q-305 54 -305 301q0 161 117.5 250.5t316.5 89.5q202 0 319 -92t120 -246h-248q-3 76 -54 115t-139 39q-85 0 -131.5 -35t-46.5 -96
q0 -29 11.5 -51t26.5 -34t39 -21t40 -12.5t39 -6.5l198 -35q295 -48 295 -309q0 -158 -124.5 -250t-331.5 -92q-219 0 -342 98t-123 258h248z" />
    <glyph glyph-name="Scedilla" unicode="&#x15e;" horiz-adv-x="1378" 
d="M1282 444q0 -209 -145.5 -329.5t-395.5 -132.5l-39 -68q43 3 85 -11.5t74 -54.5t32 -98q0 -73 -41.5 -121.5t-102 -64t-127 -7.5t-116.5 40v127q44 -35 97 -44.5t91.5 12t38.5 70.5q0 51 -47.5 70.5t-122.5 -6.5v63l53 93q-254 17 -395 148t-143 335h276
q6 -131 92 -200.5t246 -69.5q144 0 223.5 60.5t79.5 160.5q0 43 -16.5 77.5t-36.5 53.5t-53.5 34t-52.5 20t-48 11l-251 54q-34 7 -50.5 11t-56.5 15.5t-64 21.5t-61.5 29t-61.5 39t-52 50t-44 64t-27 79t-11 96q0 199 153.5 320.5t405.5 121.5q258 0 407 -119.5t154 -320.5
h-277q-7 112 -86 169.5t-211 57.5q-127 0 -195.5 -51.5t-68.5 -140.5q0 -30 9.5 -55t21.5 -42t35.5 -32t39.5 -23.5t46 -17t42 -11.5t40 -9l256 -52q85 -17 154.5 -48.5t126.5 -81t88.5 -124t31.5 -168.5z" />
    <glyph glyph-name="scedilla" unicode="&#x15f;" horiz-adv-x="1073" 
d="M997 322q0 -151 -112 -242t-303 -100l-35 -58q43 3 85 -11.5t73.5 -54.5t31.5 -98q0 -73 -41.5 -121.5t-102 -64t-127 -7.5t-116.5 40v127q44 -35 97.5 -44t92 12.5t38.5 70.5q0 51 -47.5 70t-122.5 -7v64l51 86q-182 18 -282.5 113.5t-100.5 238.5h248
q0 -81 58.5 -125.5t160.5 -44.5q91 0 141.5 37t50.5 102q0 101 -125 121l-211 39q-305 54 -305 301q0 161 117.5 250.5t316.5 89.5q202 0 319 -92t120 -246h-248q-3 76 -54 115t-139 39q-85 0 -131.5 -35t-46.5 -96q0 -29 11.5 -51t26.5 -34t39 -21t40 -12.5t39 -6.5
l198 -35q295 -48 295 -309z" />
    <glyph glyph-name="Scaron" unicode="&#x160;" horiz-adv-x="1378" 
d="M334 1884l123 117l221 -236l219 236l125 -117l-268 -272h-152zM354 465q6 -131 92 -200.5t246 -69.5q144 0 223.5 60.5t79.5 160.5q0 43 -16.5 77.5t-36.5 53.5t-53.5 34t-52.5 20t-48 11l-251 54q-34 7 -50.5 11t-56.5 15.5t-64 21.5t-61.5 29t-61.5 39t-52 50t-44 64
t-27 79t-11 96q0 199 153.5 320.5t405.5 121.5q258 0 407 -119.5t154 -320.5h-277q-7 112 -86 169.5t-211 57.5q-127 0 -195.5 -51.5t-68.5 -140.5q0 -30 9.5 -55t21.5 -42t35.5 -32t39.5 -23.5t46 -17t42 -11.5t40 -9l256 -52q85 -17 154.5 -48.5t126.5 -81t88.5 -124
t31.5 -168.5q0 -219 -161.5 -341.5t-432.5 -122.5q-287 0 -447.5 133t-162.5 352h276z" />
    <glyph glyph-name="scaron" unicode="&#x161;" horiz-adv-x="1073" 
d="M197 1493l122 117l222 -236l219 236l125 -117l-269 -272h-151zM324 336q0 -81 58.5 -125.5t160.5 -44.5q91 0 141.5 37t50.5 102q0 101 -125 121l-211 39q-305 54 -305 301q0 161 117.5 250.5t316.5 89.5q202 0 319 -92t120 -246h-248q-3 76 -54 115t-139 39
q-85 0 -131.5 -35t-46.5 -96q0 -29 11.5 -51t26.5 -34t39 -21t40 -12.5t39 -6.5l198 -35q295 -48 295 -309q0 -158 -124.5 -250t-331.5 -92q-219 0 -342 98t-123 258h248z" />
    <glyph glyph-name="uni0162" unicode="&#x162;" horiz-adv-x="1159" 
d="M713 0h-80l-51 -86q43 3 85 -11.5t73.5 -54.5t31.5 -98q0 -73 -41.5 -121.5t-102 -64t-127 -7.5t-116.5 40v127q44 -35 97 -44.5t91.5 12t38.5 70.5q0 51 -47.5 70.5t-122.5 -6.5v63l66 111h-64v1255h-432v238h1135v-238h-434v-1255z" />
    <glyph glyph-name="uni0163" unicode="&#x163;" horiz-adv-x="751" 
d="M690 879h-235v-533q0 -36 5 -61.5t19 -48.5t42.5 -34.5t70.5 -11.5q55 0 98 13v-203q-81 -16 -168 -16h-2l-37 -62q43 3 85 -11.5t74 -54.5t32 -98q0 -73 -41.5 -121.5t-102 -64t-127 -7.5t-116.5 40v127q44 -35 97 -44t91.5 12.5t38.5 70.5q0 51 -47.5 70t-122.5 -7v64
l57 98q-59 16 -100 47.5t-62.5 76t-30.5 91.5t-9 106v562h-179v206h179v293l256 99v-392h235v-206z" />
    <glyph glyph-name="Tcaron" unicode="&#x164;" horiz-adv-x="1159" 
d="M657 1612h-151l-268 272l122 117l222 -236l219 236l125 -117zM1147 1493v-238h-434v-1255h-269v1255h-432v238h1135z" />
    <glyph glyph-name="tcaron" unicode="&#x165;" horiz-adv-x="751" 
d="M-10 1804l123 117l221 -235l219 235l125 -117l-268 -272h-152zM20 1085h179v293l256 99v-392h235v-206h-235v-533q0 -36 5 -61.5t19 -48.5t42.5 -34.5t70.5 -11.5q55 0 98 13v-203q-81 -16 -168 -16q-78 0 -136.5 18t-93.5 48t-56.5 74.5t-29 90t-7.5 102.5v562h-179v206
z" />
    <glyph glyph-name="Tbar" unicode="&#x166;" horiz-adv-x="1159" 
d="M1147 1255h-434v-368h329v-223h-329v-664h-269v664h-303v223h303v368h-432v238h1135v-238z" />
    <glyph glyph-name="tbar" unicode="&#x167;" horiz-adv-x="751" 
d="M698 483h-243v-137q0 -36 5 -61.5t19 -48.5t42.5 -34.5t70.5 -11.5q55 0 98 13v-203q-81 -16 -168 -16q-78 0 -136.5 18t-93.5 48t-56.5 74.5t-29 90t-7.5 102.5v166h-181v209h181v187h-179v206h179v293l256 99v-392h235v-206h-235v-187h243v-209z" />
    <glyph glyph-name="Umacron" unicode="&#x16a;" horiz-adv-x="1585" 
d="M446 1610v188h691v-188h-691zM168 563v930h266v-909q0 -171 96 -267t263 -96q165 0 261.5 95.5t96.5 267.5v909h266v-930q0 -269 -169 -426t-457 -157q-302 0 -462.5 157.5t-160.5 425.5z" />
    <glyph glyph-name="umacron" unicode="&#x16b;" horiz-adv-x="1263" 
d="M287 1219v188h690v-188h-690zM1128 1085v-1085h-221l-33 199h-18q-47 -102 -139.5 -160.5t-218.5 -58.5q-175 0 -269 111t-94 310v684h256v-647q0 -245 211 -245q124 0 198 89t74 232v571h254z" />
    <glyph glyph-name="Uring" unicode="&#x16e;" horiz-adv-x="1585" 
d="M1038 1655q0 -107 -68.5 -173.5t-176.5 -66.5q-109 0 -178.5 66.5t-69.5 173.5q0 106 69 171.5t179 65.5q108 0 176.5 -65.5t68.5 -171.5zM895 1655q0 49 -28 79.5t-74 30.5t-74.5 -30.5t-28.5 -79.5t28.5 -80t74.5 -31t74 30.5t28 80.5zM168 563v930h266v-909
q0 -171 96 -267t263 -96q165 0 261.5 95.5t96.5 267.5v909h266v-930q0 -269 -169 -426t-457 -157q-302 0 -462.5 157.5t-160.5 425.5z" />
    <glyph glyph-name="uring" unicode="&#x16f;" horiz-adv-x="1263" 
d="M879 1264q0 -107 -69 -173.5t-177 -66.5q-109 0 -178.5 66.5t-69.5 173.5q0 106 69 171.5t179 65.5q108 0 177 -65.5t69 -171.5zM735 1264q0 49 -28 79.5t-74 30.5t-74.5 -30.5t-28.5 -79.5t28.5 -80t74.5 -31t74 30.5t28 80.5zM1128 1085v-1085h-221l-33 199h-18
q-47 -102 -139.5 -160.5t-218.5 -58.5q-175 0 -269 111t-94 310v684h256v-647q0 -245 211 -245q124 0 198 89t74 232v571h254z" />
    <glyph glyph-name="Uhungarumlaut" unicode="&#x170;" horiz-adv-x="1585" 
d="M561 1585l-78 119l394 305l108 -178zM1026 1585l-76 119l391 305l113 -178zM168 563v930h266v-909q0 -171 96 -267t263 -96q165 0 261.5 95.5t96.5 267.5v909h266v-930q0 -269 -169 -426t-457 -157q-302 0 -462.5 157.5t-160.5 425.5z" />
    <glyph glyph-name="uhungarumlaut" unicode="&#x171;" horiz-adv-x="1263" 
d="M403 1194l-77 119l393 305l108 -178zM868 1194l-75 119l391 305l112 -178zM1128 1085v-1085h-221l-33 199h-18q-47 -102 -139.5 -160.5t-218.5 -58.5q-175 0 -269 111t-94 310v684h256v-647q0 -245 211 -245q124 0 198 89t74 232v571h254z" />
    <glyph glyph-name="Uogonek" unicode="&#x172;" horiz-adv-x="1585" 
d="M1151 1493h266v-930q0 -234 -129 -385t-356 -188q-144 -42 -144 -150q0 -45 35 -69.5t95 -24.5q56 0 120 25v-140q-73 -30 -168 -30q-108 1 -173.5 58t-65.5 148q0 103 74 177q-261 23 -399 177t-138 402v930h266v-909q0 -171 96 -267t263 -96q165 0 261.5 95.5
t96.5 267.5v909z" />
    <glyph glyph-name="uogonek" unicode="&#x173;" horiz-adv-x="1263" 
d="M1077 -254q57 0 121 25v-140q-74 -30 -168 -30q-108 1 -173.5 58t-65.5 148q0 131 114 209l-31 183h-18q-47 -102 -139.5 -160.5t-218.5 -58.5q-175 0 -269 111t-94 310v684h256v-647q0 -245 211 -245q124 0 198 89t74 232v571h254v-1085q-180 -39 -180 -160
q0 -45 34.5 -69.5t94.5 -24.5z" />
    <glyph glyph-name="Wcircumflex" unicode="&#x174;" horiz-adv-x="1968" 
d="M643 1702l268 268h152l268 -268l-125 -119l-219 234l-223 -234zM18 1493h293l150 -811l59 -387h17l278 1198h342l283 -1200h14l57 385l148 815h291l-303 -1493h-371l-283 1157h-14l-287 -1157h-368z" />
    <glyph glyph-name="wcircumflex" unicode="&#x175;" horiz-adv-x="1581" 
d="M793 1425l-224 -233l-120 119l268 268h151l269 -268l-125 -119zM1311 1085h256l-289 -1085h-317l-113 502l-53 264h-13l-53 -264l-108 -502h-316l-291 1085h258l121 -503l68 -328h16l170 831h291l170 -831h16l66 324z" />
    <glyph glyph-name="Ycircumflex" unicode="&#x176;" horiz-adv-x="1394" 
d="M356 1702l269 268h151l268 -268l-124 -119l-220 234l-223 -234zM6 1493h322l190 -342l172 -322h17l174 320l190 344h318l-558 -907v-586h-268v586z" />
    <glyph glyph-name="ycircumflex" unicode="&#x177;" horiz-adv-x="1024" 
d="M162 1313l268 268h152l268 -268l-125 -119l-219 233l-223 -233zM-12 1085h274l154 -462l96 -320h14l95 320l143 462h266l-387 -1103q-118 -344 -463 -344q-59 0 -121 10v211q51 -9 99 -9q52 0 92.5 14t65 38.5t38 47t21.5 48.5l18 53z" />
    <glyph glyph-name="Ydieresis" unicode="&#x178;" horiz-adv-x="1394" 
d="M387 1616v276h209v-276h-209zM799 1616v276h211v-276h-211zM6 1493h322l190 -342l172 -322h17l174 320l190 344h318l-558 -907v-586h-268v586z" />
    <glyph glyph-name="Zacute" unicode="&#x179;" horiz-adv-x="1189" 
d="M989 1825l-434 -246l-78 125l404 303zM1149 1493v-217l-772 -1038h762v-238h-1100v219l770 1036h-770v238h1110z" />
    <glyph glyph-name="zacute" unicode="&#x17a;" horiz-adv-x="989" 
d="M924 1434l-435 -246l-77 125l403 303zM907 899l-524 -692h532v-207h-839v186l526 693h-528v206h833v-186z" />
    <glyph glyph-name="Zdotaccent" unicode="&#x17b;" horiz-adv-x="1189" 
d="M662 1892v-276h-209v276h209zM1149 1493v-217l-772 -1038h762v-238h-1100v219l770 1036h-770v238h1110z" />
    <glyph glyph-name="zdotaccent" unicode="&#x17c;" horiz-adv-x="989" 
d="M596 1501v-276h-209v276h209zM383 207h532v-207h-839v186l526 693h-528v206h833v-186z" />
    <glyph glyph-name="Zcaron" unicode="&#x17d;" horiz-adv-x="1189" 
d="M631 1612h-152l-268 272l123 117l221 -236l219 236l125 -117zM1149 1493v-217l-772 -1038h762v-238h-1100v219l770 1036h-770v238h1110z" />
    <glyph glyph-name="zcaron" unicode="&#x17e;" horiz-adv-x="989" 
d="M565 1221h-151l-269 272l123 117l221 -236l220 236l125 -117zM383 207h532v-207h-839v186l526 693h-528v206h833v-186z" />
    <glyph glyph-name="uni018F" unicode="&#x18f;" horiz-adv-x="1456" 
d="M727 1513q307 0 479 -200t172 -561q0 -368 -176.5 -570t-482.5 -202q-301 0 -468 191.5t-167 514.5q0 47 8 125h1002q0 231 -100 348t-279 117q-136 0 -233.5 -65t-125.5 -173h-270q45 221 219 348t422 127zM719 213q166 0 264.5 102t108.5 285h-721q3 -105 31.5 -182.5
t77.5 -121t108 -63.5t131 -20z" />
    <glyph glyph-name="florin" unicode="&#x192;" horiz-adv-x="1163" 
d="M801 1284l-35 -250l-14 -112h223v-209h-252l-72 -525l-33 -237q-5 -35 -12 -61t-24 -58t-42.5 -52t-69 -34t-101.5 -14h-312v209h305l37 247l70 525h-205v209h234l14 112l35 240q6 37 13.5 64t25 58t43 51t68.5 33t100 13h309v-209h-305z" />
    <glyph glyph-name="AEacute" unicode="&#x1fc;" horiz-adv-x="1994" 
d="M1581 1825l-434 -246l-78 125l404 303zM1886 1257h-760v-403h646v-219h-646v-399h760v-236h-1028v371h-463l-114 -371h-279l490 1493h1394v-236zM858 582v675h-188l-209 -675h397z" />
    <glyph glyph-name="Oslashacute" unicode="&#x1fe;" horiz-adv-x="1720" 
d="M1362 1825l-434 -246l-78 125l403 303zM1640 1196l-151 -111q59 -148 59 -337q0 -355 -194.5 -561.5t-519.5 -206.5q-348 0 -543 233l-115 -84l-108 172l118 86q-65 157 -65 358q0 234 89 408t250 266t374 92q179 0 320.5 -63.5t234.5 -181.5l133 96zM406 748
q0 -106 20 -185l743 541q-119 170 -335 170q-198 0 -313 -144t-115 -382zM1266 745q0 79 -17 166l-737 -538q116 -154 322 -154q202 0 317 143.5t115 382.5z" />
    <glyph glyph-name="oslashacute" unicode="&#x1ff;" horiz-adv-x="1290" 
d="M1075 1434l-434 -246l-78 125l404 303zM1247 881l-119 -88q48 -115 48 -252q0 -250 -147 -405.5t-386 -155.5q-250 0 -399 165l-107 -77l-92 141l109 80q-48 115 -48 252q0 252 147.5 408.5t389.5 156.5q249 0 395 -168l115 84zM367 543q0 -49 6 -92l471 344
q-74 96 -203 96q-128 0 -201 -93.5t-73 -254.5zM915 545q0 47 -6 88l-471 -344q75 -94 203 -94q127 0 200.5 94t73.5 256z" />
    <glyph glyph-name="uni0218" unicode="&#x218;" horiz-adv-x="1378" 
d="M354 465q6 -131 92 -200.5t246 -69.5q144 0 223.5 60.5t79.5 160.5q0 43 -16.5 77.5t-36.5 53.5t-53.5 34t-52.5 20t-48 11l-251 54q-34 7 -50.5 11t-56.5 15.5t-64 21.5t-61.5 29t-61.5 39t-52 50t-44 64t-27 79t-11 96q0 199 153.5 320.5t405.5 121.5q258 0 407 -119.5
t154 -320.5h-277q-7 112 -86 169.5t-211 57.5q-127 0 -195.5 -51.5t-68.5 -140.5q0 -30 9.5 -55t21.5 -42t35.5 -32t39.5 -23.5t46 -17t42 -11.5t40 -9l256 -52q85 -17 154.5 -48.5t126.5 -81t88.5 -124t31.5 -168.5q0 -219 -161.5 -341.5t-432.5 -122.5q-287 0 -447.5 133
t-162.5 352h276zM598 -545v74q100 0 100 92v27h-110v237h221v-239q0 -191 -211 -191z" />
    <glyph glyph-name="uni0219" unicode="&#x219;" horiz-adv-x="1073" 
d="M324 336q0 -81 58.5 -125.5t160.5 -44.5q91 0 141.5 37t50.5 102q0 101 -125 121l-211 39q-305 54 -305 301q0 161 117.5 250.5t316.5 89.5q202 0 319 -92t120 -246h-248q-3 76 -54 115t-139 39q-85 0 -131.5 -35t-46.5 -96q0 -29 11.5 -51t26.5 -34t39 -21t40 -12.5
t39 -6.5l198 -35q295 -48 295 -309q0 -158 -124.5 -250t-331.5 -92q-219 0 -342 98t-123 258h248zM442 -537v74q101 0 101 92v27h-111v238h221v-240q0 -191 -211 -191z" />
    <glyph glyph-name="uni021A" unicode="&#x21a;" horiz-adv-x="1159" 
d="M1147 1493v-238h-434v-1255h-269v1255h-432v238h1135zM467 -352v237h221v-239q0 -191 -211 -191v74q101 0 101 92v27h-111z" />
    <glyph glyph-name="uni021B" unicode="&#x21b;" horiz-adv-x="751" 
d="M20 1085h179v293l256 99v-392h235v-206h-235v-533q0 -36 5 -61.5t19 -48.5t42.5 -34.5t70.5 -11.5q55 0 98 13v-203q-81 -16 -168 -16q-78 0 -136.5 18t-93.5 48t-56.5 74.5t-29 90t-7.5 102.5v562h-179v206zM379 -537v74q100 0 100 92v27h-110v238h221v-240
q0 -191 -211 -191z" />
    <glyph glyph-name="uni0237" unicode="&#x237;" horiz-adv-x="557" 
d="M72 -365q-84 0 -133 11v194q27 -6 57 -6q96 0 127 40.5t31 129.5v1081h254v-1099q0 -162 -80 -256.5t-256 -94.5z" />
    <glyph glyph-name="circumflex" unicode="&#x2c6;" horiz-adv-x="753" 
d="M35 1591l268 269h152l268 -269l-125 -118l-219 233l-223 -233z" />
    <glyph glyph-name="caron" unicode="&#x2c7;" horiz-adv-x="753" 
d="M35 1772l123 116l221 -235l219 235l125 -116l-268 -273h-152z" />
    <glyph glyph-name="breve" unicode="&#x2d8;" horiz-adv-x="727" 
d="M680 1796q0 -139 -85.5 -226t-232.5 -87q-145 0 -229 87.5t-84 225.5h160q0 -79 41.5 -123.5t111.5 -44.5t113 45t43 123h162z" />
    <glyph glyph-name="dotaccent" unicode="&#x2d9;" horiz-adv-x="421" 
d="M106 1507v277h209v-277h-209z" />
    <glyph glyph-name="ring" unicode="&#x2da;" horiz-adv-x="735" 
d="M623 1612q0 -107 -69 -173.5t-177 -66.5q-109 0 -178.5 66.5t-69.5 173.5q0 106 69 171.5t179 65.5q108 0 177 -65.5t69 -171.5zM479 1612q0 49 -28 79.5t-74 30.5t-74.5 -30.5t-28.5 -79.5t28.5 -80t74.5 -31t74 30.5t28 80.5z" />
    <glyph glyph-name="ogonek" unicode="&#x2db;" horiz-adv-x="837" 
d="M209 -193q0 108 79 181t208 94l51 -82q-180 -39 -180 -160q0 -45 34.5 -69.5t94.5 -24.5q56 0 120 25v-140q-74 -30 -167 -30q-108 1 -174 58t-66 148z" />
    <glyph glyph-name="tilde" unicode="&#x2dc;" horiz-adv-x="700" 
d="M481 1485q-52 -1 -99.5 19.5t-88.5 41t-78 19.5q-35 -1 -61 -19t-54 -53l-104 72q83 179 225 182q52 1 133.5 -39.5t126.5 -38.5q31 1 56.5 15.5t35 26t23.5 32.5l106 -72q-39 -91 -96 -137.5t-125 -48.5z" />
    <glyph glyph-name="hungarumlaut" unicode="&#x2dd;" horiz-adv-x="1091" 
d="M139 1473l-78 118l394 305l108 -178zM604 1473l-76 118l392 305l112 -178z" />
    <glyph glyph-name="gravecomb" unicode="&#x300;" 
d="M-281 1473l-434 243l109 182l403 -301z" />
    <glyph glyph-name="acutecomb" unicode="&#x301;" 
d="M-588 1466l-78 125l404 303l108 -182z" />
    <glyph glyph-name="uni0302" unicode="&#x302;" 
d="M-719 1591l268 269h152l268 -269l-125 -118l-219 233l-223 -233z" />
    <glyph glyph-name="tildecomb" unicode="&#x303;" 
d="M-219 1485q-52 -1 -99.5 19.5t-88.5 41t-78 19.5q-35 -1 -61 -19t-54 -53l-105 72q83 179 226 182q52 1 133.5 -39.5t126.5 -38.5q31 1 56.5 15.5t35 26t23.5 32.5l106 -72q-39 -91 -96 -137.5t-125 -48.5z" />
    <glyph glyph-name="uni0304" unicode="&#x304;" 
d="M-711 1499v189h691v-189h-691z" />
    <glyph glyph-name="uni0306" unicode="&#x306;" 
d="M-47 1796q0 -139 -85.5 -226t-232.5 -87q-145 0 -229 87.5t-84 225.5h160q0 -79 41.5 -123.5t111.5 -44.5t113 45t43 123h162z" />
    <glyph glyph-name="uni0307" unicode="&#x307;" 
d="M-315 1507v277h209v-277h-209z" />
    <glyph glyph-name="uni0308" unicode="&#x308;" 
d="M-731 1507v277h209v-277h-209zM-319 1507v277h210v-277h-210z" />
    <glyph glyph-name="uni030A" unicode="&#x30a;" 
d="M-113 1612q0 -107 -68.5 -173.5t-176.5 -66.5q-109 0 -178.5 66.5t-69.5 173.5q0 106 69 171.5t179 65.5q108 0 176.5 -65.5t68.5 -171.5zM-256 1612q0 49 -28 79.5t-74 30.5t-74.5 -30.5t-28.5 -79.5t28.5 -80t74.5 -31t74 30.5t28 80.5z" />
    <glyph glyph-name="uni030B" unicode="&#x30b;" 
d="M-952 1473l-78 118l393 305l109 -178zM-487 1473l-76 118l391 305l113 -178z" />
    <glyph glyph-name="uni030C" unicode="&#x30c;" 
d="M-719 1772l123 116l221 -235l219 235l125 -116l-268 -273h-152z" />
    <glyph glyph-name="uni0312" unicode="&#x312;" 
d="M-104 1968v-74q-101 0 -101 -94v-55h111v-236h-219v269q0 190 209 190z" />
    <glyph glyph-name="uni0326" unicode="&#x326;" 
d="M-371 -530v73q101 0 101 92v27h-111v238h221v-240q0 -190 -211 -190z" />
    <glyph glyph-name="uni0327" unicode="&#x327;" 
d="M-512 -86q43 3 85 -11.5t73.5 -54.5t31.5 -98q0 -73 -41.5 -121.5t-102 -64t-127 -7.5t-116.5 40v127q44 -35 97.5 -44.5t92 12t38.5 70.5q0 51 -47.5 70.5t-122.5 -6.5v63l104 179h94v-54z" />
    <glyph glyph-name="uni0328" unicode="&#x328;" 
d="M-629 -193q0 108 79 181t208 94l51 -82q-180 -39 -180 -160q0 -45 34.5 -69.5t94.5 -24.5q57 0 121 25v-140q-73 -30 -168 -30q-108 1 -174 58t-66 148z" />
    <glyph glyph-name="uni0335" unicode="&#x335;" 
d="M-899 614v187h754v-187h-754z" />
    <glyph glyph-name="uni0336" unicode="&#x336;" 
 />
    <glyph glyph-name="uni0337" unicode="&#x337;" 
d="M-760 0l576 1493h153l-575 -1493h-154z" />
    <glyph glyph-name="uni0338" unicode="&#x338;" 
d="M-760 0l576 1493h153l-575 -1493h-154z" />
    <glyph glyph-name="uni03BC" unicode="&#x3bc;" horiz-adv-x="1222" 
d="M141 -354l2 1439h254v-684q0 -106 55.5 -164.5t147.5 -58.5q107 0 166 71.5t59 192.5v643h254v-1085h-239l6 152h-17q-28 -86 -96.5 -129t-163.5 -43q-57 0 -108.5 21.5t-75.5 57.5h-16v-413h-228z" />
    <glyph glyph-name="pi" unicode="&#x3c0;" horiz-adv-x="1232" 
d="M1188 6q-78 -20 -135 -20q-73 0 -127 20.5t-83 50t-45.5 73t-21 79t-4.5 78.5v618h-309v-905h-250v905h-174v180h1151v-180h-170v-608q0 -115 102 -115q42 0 66 8v-184z" />
    <glyph glyph-name="omega" unicode="&#x3c9;" horiz-adv-x="1609" 
d="M872 0v444q160 31 256.5 149.5t96.5 285.5q0 184 -116 299.5t-304 115.5t-304 -116.5t-116 -303.5q0 -166 96 -281.5t256 -148.5v-444h-520v203h307v100q-182 62 -292.5 220.5t-110.5 361.5q0 282 185 455t499 173q309 0 496.5 -171t187.5 -457q0 -202 -111 -360.5
t-293 -221.5v-100h306v-203h-519z" />
    <glyph glyph-name="Wgrave" unicode="&#x1e80;" horiz-adv-x="1968" 
d="M985 1585l-434 244l108 182l404 -301zM18 1493h293l150 -811l59 -387h17l278 1198h342l283 -1200h14l57 385l148 815h291l-303 -1493h-371l-283 1157h-14l-287 -1157h-368z" />
    <glyph glyph-name="wgrave" unicode="&#x1e81;" horiz-adv-x="1581" 
d="M870 1319l-77 -125l-435 244l109 182zM1311 1085h256l-289 -1085h-317l-113 502l-53 264h-13l-53 -264l-108 -502h-316l-291 1085h258l121 -503l68 -328h16l170 831h291l170 -831h16l66 324z" />
    <glyph glyph-name="Wacute" unicode="&#x1e82;" horiz-adv-x="1968" 
d="M983 1579l-78 125l404 303l108 -182zM18 1493h293l150 -811l59 -387h17l278 1198h342l283 -1200h14l57 385l148 815h291l-303 -1493h-371l-283 1157h-14l-287 -1157h-368z" />
    <glyph glyph-name="wacute" unicode="&#x1e83;" horiz-adv-x="1581" 
d="M1225 1434l-434 -246l-78 125l403 303zM1311 1085h256l-289 -1085h-317l-113 502l-53 264h-13l-53 -264l-108 -502h-316l-291 1085h258l121 -503l68 -328h16l170 831h291l170 -831h16l66 324z" />
    <glyph glyph-name="Wdieresis" unicode="&#x1e84;" horiz-adv-x="1968" 
d="M674 1616v276h209v-276h-209zM1085 1616v276h211v-276h-211zM18 1493h293l150 -811l59 -387h17l278 1198h342l283 -1200h14l57 385l148 815h291l-303 -1493h-371l-283 1157h-14l-287 -1157h-368z" />
    <glyph glyph-name="wdieresis" unicode="&#x1e85;" horiz-adv-x="1581" 
d="M688 1501v-276h-209v276h209zM1102 1501v-276h-211v276h211zM1311 1085h256l-289 -1085h-317l-113 502l-53 264h-13l-53 -264l-108 -502h-316l-291 1085h258l121 -503l68 -328h16l170 831h291l170 -831h16l66 324z" />
    <glyph glyph-name="Ygrave" unicode="&#x1ef2;" horiz-adv-x="1394" 
d="M698 1585l-434 244l109 182l403 -301zM6 1493h322l190 -342l172 -322h17l174 320l190 344h318l-558 -907v-586h-268v586z" />
    <glyph glyph-name="ygrave" unicode="&#x1ef3;" horiz-adv-x="1024" 
d="M506 1196l-434 244l108 182l404 -301zM-12 1085h274l154 -462l96 -320h14l95 320l143 462h266l-387 -1103q-118 -344 -463 -344q-59 0 -121 10v211q51 -9 99 -9q52 0 92.5 14t65 38.5t38 47t21.5 48.5l18 53z" />
    <glyph glyph-name="endash" unicode="&#x2013;" horiz-adv-x="1318" 
d="M119 541v149h1081v-149h-1081z" />
    <glyph glyph-name="emdash" unicode="&#x2014;" horiz-adv-x="1720" 
d="M119 541v149h1483v-149h-1483z" />
    <glyph glyph-name="quoteleft" unicode="&#x2018;" horiz-adv-x="448" 
d="M371 1505v-102q-166 0 -166 -152v-34h139v-285h-272v315q0 121 81.5 189.5t217.5 68.5z" />
    <glyph glyph-name="quoteright" unicode="&#x2019;" horiz-adv-x="444" 
d="M82 930v102q166 0 166 152v33h-139v286h270v-315q0 -121 -81 -189.5t-216 -68.5z" />
    <glyph glyph-name="quotesinglbase" unicode="&#x201a;" horiz-adv-x="448" 
d="M78 -287v103q166 0 166 149v35h-140v287h271v-316q0 -121 -81 -189.5t-216 -68.5z" />
    <glyph glyph-name="quotedblleft" unicode="&#x201c;" horiz-adv-x="903" 
d="M373 1505v-102q-166 0 -166 -152v-34h139v-285h-270v315q0 121 81 189.5t216 68.5zM821 1505v-102q-164 0 -164 -152v-34h140v-285h-273v315q0 121 81 189.5t216 68.5z" />
    <glyph glyph-name="quotedblright" unicode="&#x201d;" horiz-adv-x="884" 
d="M88 930v102q164 0 164 152v33h-139v286h272v-315q0 -121 -81 -189.5t-216 -68.5zM522 930v102q166 0 166 152v33h-139v286h272v-315q0 -121 -81.5 -189.5t-217.5 -68.5z" />
    <glyph glyph-name="quotedblbase" unicode="&#x201e;" horiz-adv-x="868" 
d="M88 -287v103q166 0 166 149v35h-139v287h270v-316q0 -121 -81 -189.5t-216 -68.5zM510 -287v103q166 0 166 149v35h-139v287h270v-316q0 -121 -81 -189.5t-216 -68.5z" />
    <glyph glyph-name="dagger" unicode="&#x2020;" horiz-adv-x="860" 
d="M520 782h283v-168h-283v-295h-182v295h-281v168h281v713h182v-713z" />
    <glyph glyph-name="daggerdbl" unicode="&#x2021;" horiz-adv-x="860" 
d="M803 1042h-283v-260h283v-168h-283v-295h-182v295h-281v168h281v260h-281v164h281v289h182v-289h283v-164z" />
    <glyph glyph-name="bullet" unicode="&#x2022;" horiz-adv-x="802" 
d="M117 565q0 128 81.5 214.5t202.5 86.5q120 0 203.5 -87t83.5 -214q0 -123 -83.5 -207t-203.5 -84q-121 0 -202.5 84t-81.5 207z" />
    <glyph glyph-name="ellipsis" unicode="&#x2026;" horiz-adv-x="1486" 
d="M133 0v303h273v-303h-273zM608 0v303h271v-303h-271zM1083 0v303h273v-303h-273z" />
    <glyph glyph-name="perthousand" unicode="&#x2030;" horiz-adv-x="2674" 
d="M113 1141q0 163 101 265.5t263 102.5q165 0 267 -102.5t102 -267.5q0 -166 -102.5 -270.5t-266.5 -104.5q-160 0 -262 105t-102 272zM379 0l946 1493h156l-949 -1493h-153zM291 1141q0 -96 51.5 -156.5t134.5 -60.5q86 0 138.5 60.5t52.5 156.5q0 94 -53 152.5t-138 58.5
q-82 0 -134 -58.5t-52 -152.5zM991 354q0 164 102 268.5t265 104.5q164 0 264 -104.5t100 -270.5q0 -165 -101 -268.5t-263 -103.5t-264.5 103.5t-102.5 270.5zM1825 354q0 164 101.5 268.5t264.5 104.5q162 0 263.5 -105t101.5 -270t-101.5 -268.5t-263.5 -103.5
t-264 103.5t-102 270.5zM1169 356q0 -95 53 -156t136 -61q84 0 136 60.5t52 156.5q0 94 -52.5 153.5t-135.5 59.5t-136 -59.5t-53 -153.5zM2003 356q0 -95 51.5 -156t136.5 -61q84 0 135.5 60.5t51.5 156.5q0 94 -52 153.5t-135 59.5q-84 0 -136 -59.5t-52 -153.5z" />
    <glyph glyph-name="guilsinglleft" unicode="&#x2039;" horiz-adv-x="663" 
d="M84 561l246 432h225l-227 -432l227 -436h-225z" />
    <glyph glyph-name="guilsinglright" unicode="&#x203a;" horiz-adv-x="663" 
d="M580 561l-244 -436h-227l225 436l-225 432h227z" />
    <glyph glyph-name="fraction" unicode="&#x2044;" horiz-adv-x="471" 
d="M-287 -94l842 1667h201l-842 -1667h-201z" />
    <glyph glyph-name="uni2070" unicode="&#x2070;" horiz-adv-x="1007" 
d="M504 604q-201 0 -310.5 155t-109.5 435q0 290 113.5 438t308.5 148q200 0 309 -153.5t109 -432.5q0 -292 -114 -441t-306 -149zM502 786q111 0 159 103t48 299q0 218 -52 316t-151 98q-112 0 -160.5 -104t-48.5 -298q0 -414 205 -414z" />
    <glyph glyph-name="uni2074" unicode="&#x2074;" horiz-adv-x="995" 
d="M799 1020h141v-172h-141v-234h-203v234h-543v164l439 753h307v-745zM262 1020h334v573z" />
    <glyph glyph-name="uni2075" unicode="&#x2075;" horiz-adv-x="974" 
d="M518 1384q166 0 270.5 -108.5t104.5 -278.5q0 -179 -114.5 -289t-301.5 -110q-180 0 -290 103t-109 270h207q-2 -83 51.5 -137t142.5 -54q91 0 146 58t55 153q0 96 -55.5 157.5t-149.5 61.5q-63 0 -113 -29.5t-69 -76.5h-195l29 661h694v-180h-512l-14 -268l10 -2
q33 32 91 50.5t122 18.5z" />
    <glyph glyph-name="uni2076" unicode="&#x2076;" horiz-adv-x="983" 
d="M510 598q-145 0 -241.5 76t-139.5 206t-43 312q0 136 25 242.5t76 184.5t134 119.5t195 41.5q160 0 260.5 -80.5t114.5 -216.5h-209q-11 63 -58.5 93t-111.5 30q-232 0 -215 -361h10q35 67 101 100t149 33q156 0 255 -105t99 -276q0 -181 -109.5 -290t-291.5 -109z
M514 780q86 0 137 58.5t51 156.5t-52 155.5t-136 57.5q-89 0 -139.5 -62.5t-50.5 -154.5q0 -96 52.5 -153.5t137.5 -57.5z" />
    <glyph glyph-name="uni2077" unicode="&#x2077;" horiz-adv-x="886" 
d="M39 1389v376h803v-147q-158 -219 -280.5 -491t-162.5 -513h-223q38 232 152 493t268 478h-389v-196h-168z" />
    <glyph glyph-name="uni2078" unicode="&#x2078;" horiz-adv-x="960" 
d="M74 918q0 92 43.5 160.5t122.5 105.5v12q-76 34 -121 104.5t-45 161.5q0 147 111.5 232.5t295.5 85.5q187 0 296.5 -87.5t109.5 -230.5q0 -88 -44 -158.5t-122 -107.5v-12q79 -38 122.5 -108t43.5 -158q0 -147 -112 -233.5t-298 -86.5q-187 0 -295 89t-108 231zM287 1436
q0 -74 53 -118t139 -44q90 0 141.5 45t51.5 117q0 76 -52.5 121t-140.5 45q-90 0 -141 -46t-51 -120zM287 942q0 -77 53 -120.5t139 -43.5q90 0 141.5 46t51.5 118q0 75 -52.5 120.5t-140.5 45.5q-91 0 -141.5 -46.5t-50.5 -119.5z" />
    <glyph glyph-name="uni2079" unicode="&#x2079;" horiz-adv-x="978" 
d="M467 598q-153 0 -255.5 81t-117.5 218h209q10 -59 56 -91t114 -32q232 0 213 363h-10q-74 -133 -252 -133q-156 0 -254 104.5t-98 273.5q0 180 109 289t292 109q144 0 240 -76t139 -207t43 -315q0 -584 -428 -584zM467 1171q89 0 140.5 63t51.5 157t-53 151t-139 57
q-85 0 -136.5 -58.5t-51.5 -156.5t52 -155.5t136 -57.5z" />
    <glyph glyph-name="uni2080" unicode="&#x2080;" horiz-adv-x="1007" 
d="M504 -215q-201 0 -310.5 155t-109.5 435q0 290 113.5 438t308.5 148q200 0 309 -153.5t109 -432.5q0 -292 -114 -441t-306 -149zM502 -33q111 0 159 103t48 299q0 218 -52 315.5t-151 97.5q-112 0 -160.5 -103.5t-48.5 -297.5q0 -414 205 -414z" />
    <glyph glyph-name="uni2081" unicode="&#x2081;" horiz-adv-x="720" 
d="M47 588v157h49q110 0 181.5 56t76.5 145h193v-1151h-205v793h-295z" />
    <glyph glyph-name="uni2082" unicode="&#x2082;" horiz-adv-x="929" 
d="M508 -23h342v-182h-756v39q0 91 29.5 169t76 133.5t103.5 104t113.5 91t103 84t76 93.5t29.5 109q0 77 -45.5 120.5t-124.5 43.5q-87 0 -135 -51.5t-44 -142.5h-206q1 170 109.5 271.5t283.5 101.5q171 0 275 -94t104 -246q0 -70 -23.5 -132.5t-62.5 -110t-86.5 -90
t-99.5 -81t-98 -74.5t-85 -78.5t-57 -85.5z" />
    <glyph glyph-name="uni2083" unicode="&#x2083;" horiz-adv-x="958" 
d="M471 -221q-181 0 -288.5 100t-102.5 264h211q-4 -87 46.5 -135.5t137.5 -48.5t139 48t52 126q0 82 -55.5 126t-149.5 44h-103v166h88q96 0 145.5 45.5t49.5 118.5q0 70 -48 109.5t-122 39.5q-86 0 -134.5 -48.5t-45.5 -133.5h-209q-7 161 101.5 261t291.5 100
q166 0 272.5 -84t106.5 -224q0 -82 -41 -147.5t-123 -104.5v-8q92 -36 139.5 -109t47.5 -167q0 -151 -113 -244.5t-293 -93.5z" />
    <glyph glyph-name="uni2084" unicode="&#x2084;" horiz-adv-x="995" 
d="M799 201h141v-172h-141v-234h-203v234h-543v164l439 753h307v-745zM262 201h334v573z" />
    <glyph glyph-name="uni2085" unicode="&#x2085;" horiz-adv-x="974" 
d="M518 565q166 0 270.5 -108.5t104.5 -278.5q0 -179 -114.5 -289t-301.5 -110q-180 0 -290 103t-109 270h207q-2 -83 51.5 -137t142.5 -54q91 0 146 58t55 153q0 96 -55.5 157.5t-149.5 61.5q-63 0 -113 -29.5t-69 -76.5h-195l29 661h694v-180h-512l-14 -268l10 -2
q33 32 91 50.5t122 18.5z" />
    <glyph glyph-name="uni2086" unicode="&#x2086;" horiz-adv-x="983" 
d="M510 -221q-145 0 -241.5 76t-139.5 206t-43 312q0 136 25 242.5t76 184.5t134 119.5t195 41.5q160 0 260.5 -80.5t114.5 -216.5h-209q-11 63 -58 92.5t-112 29.5q-232 0 -215 -360h10q35 67 101 100t149 33q156 0 255 -105t99 -276q0 -180 -109.5 -289.5t-291.5 -109.5z
M514 -39q86 0 137 58.5t51 156.5t-52 155.5t-136 57.5q-89 0 -139.5 -62.5t-50.5 -154.5q0 -96 52.5 -153.5t137.5 -57.5z" />
    <glyph glyph-name="uni2087" unicode="&#x2087;" horiz-adv-x="886" 
d="M39 569v377h803v-147q-158 -219 -280 -489.5t-163 -514.5h-223q38 232 152 493t268 478h-389v-197h-168z" />
    <glyph glyph-name="uni2088" unicode="&#x2088;" horiz-adv-x="960" 
d="M74 98q0 93 43.5 161.5t122.5 105.5v12q-76 34 -121 104.5t-45 161.5q0 147 111.5 232.5t295.5 85.5q187 0 296.5 -87.5t109.5 -230.5q0 -88 -44 -158.5t-122 -107.5v-12q79 -38 122.5 -108.5t43.5 -158.5q0 -147 -112 -233t-298 -86q-187 0 -295 88.5t-108 230.5z
M287 616q0 -74 53 -117.5t139 -43.5q90 0 141.5 44.5t51.5 116.5q0 76 -52.5 121t-140.5 45q-90 0 -141 -46t-51 -120zM287 123q0 -77 53 -120.5t139 -43.5q90 0 141.5 46t51.5 118q0 75 -52.5 120.5t-140.5 45.5q-91 0 -141.5 -46.5t-50.5 -119.5z" />
    <glyph glyph-name="uni2089" unicode="&#x2089;" horiz-adv-x="978" 
d="M467 -221q-153 0 -255.5 81t-117.5 218h209q10 -59 56 -91t114 -32q232 0 213 362h-10q-74 -133 -252 -133q-156 0 -254 104.5t-98 274.5q0 180 109 289t292 109q108 0 190 -43t132 -123t75 -188t25 -245q0 -299 -108.5 -441t-319.5 -142zM467 352q89 0 140.5 62.5
t51.5 156.5t-53 151.5t-139 57.5q-85 0 -136.5 -58.5t-51.5 -156.5t52 -155.5t136 -57.5z" />
    <glyph glyph-name="uni20A6" unicode="&#x20a6;" horiz-adv-x="1488" 
d="M1483 831v-172h-176v-659h-297l-338 659h-242v-659h-256v659h-168v172h168v662h297l340 -662h242v662h254v-662h176zM426 831h156l-152 297h-12zM1063 360l-8 299h-156l154 -299h10z" />
    <glyph glyph-name="uni20A9" unicode="&#x20a9;" horiz-adv-x="1728" 
d="M1708 831v-172h-192l-121 -659h-338l-109 659h-168l-106 -659h-334l-125 659h-197v172h166l-125 662h271l102 -662h174l123 662h264l127 -662h172l97 662h278l-121 -662h162zM856 1130l-49 -299h113l-52 299h-12zM518 295l55 364h-114l49 -364h10zM1223 293l45 366h-117
l59 -366h13z" />
    <glyph glyph-name="uni20AA" unicode="&#x20aa;" horiz-adv-x="1542" 
d="M836 1284h-471v-1284h-215v1493h667q114 0 173 -49.5t59 -181.5v-916h-213v938zM1178 1493h215v-1493h-670q-112 0 -171.5 50.5t-59.5 180.5v918h215v-938h471v1282z" />
    <glyph glyph-name="Euro" unicode="&#x20ac;" horiz-adv-x="1517" 
d="M821 217q126 0 207 63t111 173h282q-41 -216 -203.5 -343.5t-400.5 -127.5q-243 0 -402 137t-214 381h-148v176h125q-2 23 -2 72q0 32 4 94h-127v174h154q58 237 219.5 366t396.5 129q238 0 398.5 -128.5t199.5 -340.5h-282q-30 116 -114.5 176t-205.5 60
q-251 0 -336 -262h484l-21 -174h-493q-4 -62 -4 -97q0 -46 2 -69h481l-25 -176h-430q40 -142 129 -212.5t215 -70.5z" />
    <glyph glyph-name="uni20B2" unicode="&#x20b2;" horiz-adv-x="1419" 
d="M647 815h627v-90q0 -266 -141 -420.5t-375 -177.5v-182h-172v184q-233 29 -369.5 196t-136.5 429q0 264 136.5 433.5t369.5 201.5v182h172v-176q200 -17 331.5 -132t159.5 -296h-276q-22 94 -98 147t-187 53q-163 0 -250.5 -109t-87.5 -298q0 -198 90 -305t248 -107
q138 0 225.5 74t96.5 196h-363v197z" />
    <glyph glyph-name="uni20B8" unicode="&#x20b8;" horiz-adv-x="1155" 
d="M12 1493h1131v-209h-1131v209zM12 889v223h1131v-223h-438v-889h-254v889h-439z" />
    <glyph glyph-name="uni20B9" unicode="&#x20b9;" horiz-adv-x="1357" 
d="M1194 1317h-252q80 -100 98 -238h154v-176h-156q-21 -129 -101 -216.5t-200 -123.5v-14q26 -7 47.5 -20.5t35 -24.5t32.5 -40.5t26.5 -43.5t31.5 -59q2 -3 3 -5l2.5 -5l2.5 -5l180 -346h-285l-184 352q-44 89 -88 121.5t-138 32.5h-266v211h357q111 0 178.5 48.5
t89.5 137.5h-625v176h625q-24 88 -95 135.5t-173 47.5h-357v231h1057v-176z" />
    <glyph glyph-name="uni20BA" unicode="&#x20ba;" horiz-adv-x="1275" 
d="M1214 690q-49 -318 -263 -502.5t-537 -187.5h-209v551l-185 -72v203l185 74v168l-185 -72v201l185 77v363h254v-264l325 133v-203l-325 -137v-168l325 135v-203l-325 -135v-407q189 1 322 123t173 323h260z" />
    <glyph glyph-name="uni20BC" unicode="&#x20bc;" horiz-adv-x="1474" 
d="M92 0v694q0 285 136.5 430.5t381.5 165.5v203h254v-203q265 -21 391.5 -176t126.5 -420v-694h-252v694q0 329 -266 353v-1047h-254v1047q-137 -12 -200.5 -104.5t-63.5 -248.5v-694h-254z" />
    <glyph glyph-name="uni20BD" unicode="&#x20bd;" horiz-adv-x="1351" 
d="M764 520h-258v-123h383v-174h-383v-223h-254v223h-180v174h180v123h-180v187h180v786h520q242 0 384 -136.5t142 -357.5t-146.5 -351t-387.5 -128zM1028 999q0 126 -78 193.5t-213 67.5h-231v-519h231q139 0 215 71t76 187z" />
    <glyph glyph-name="uni20BF" unicode="&#x20bf;" horiz-adv-x="1484" 
d="M1227 467q0 -139 -88.5 -239.5t-261.5 -121.5v-161h-172v157h-138v-157h-170v157h-139v1313h139v156h170v-156h138v156h172v-164q149 -23 232 -116t83 -232q0 -90 -46.5 -164.5t-127.5 -112.5q99 -35 154 -119.5t55 -195.5zM924 1047q0 82 -53 124.5t-142 42.5h-213v-346
h213q89 0 142 49.5t53 129.5zM735 301q98 0 159.5 47.5t61.5 143.5q0 64 -33.5 106.5t-81 59t-106.5 16.5h-219v-373h219z" />
    <glyph glyph-name="uni2105" unicode="&#x2105;" horiz-adv-x="1931" 
d="M801 1014q-13 -127 -112 -205t-247 -78q-163 0 -265.5 104t-102.5 285t105 287t274 106q140 0 235.5 -76t110.5 -198h-193q-11 54 -56 84.5t-101 30.5q-88 0 -135.5 -62t-47.5 -172q0 -113 47.5 -172t132.5 -59q63 0 108 34t54 91h193zM395 0l948 1493h179l-949 -1493
h-178zM1106 377q0 174 104.5 282.5t274.5 108.5q168 0 271.5 -109t103.5 -282q0 -174 -104 -282.5t-271 -108.5q-170 0 -274.5 108.5t-104.5 282.5zM1298 377q0 -105 50.5 -168.5t136.5 -63.5q84 0 133 65t49 169q0 103 -49.5 166t-134.5 63q-86 0 -135.5 -63t-49.5 -168z
" />
    <glyph glyph-name="uni2116" unicode="&#x2116;" horiz-adv-x="2918" 
d="M1675 1014q0 132 60.5 244t176 180.5t261.5 68.5t261.5 -68.5t176 -180.5t60.5 -244q0 -205 -141.5 -347.5t-356.5 -142.5t-356.5 142.5t-141.5 347.5zM180 0v1493h316l684 -1128h12l-16 438v690h266v-1493h-318l-680 1124h-12l14 -424v-700h-266zM1937 1014
q0 -121 65.5 -199t170.5 -78q111 0 175.5 81.5t64.5 197.5q0 123 -65 200.5t-173 77.5q-113 0 -175.5 -81t-62.5 -199zM1796 211h756v-211h-756v211z" />
    <glyph glyph-name="uni2117" unicode="&#x2117;" horiz-adv-x="1871" 
d="M934 -156q-171 0 -328 63t-275 173t-188.5 272t-70.5 348q0 188 70 351t188 274t275.5 174.5t330.5 63.5q171 0 328 -63t274.5 -173t187.5 -272t70 -348q0 -187 -69.5 -350t-187 -274.5t-275 -175t-330.5 -63.5zM934 -88q159 0 302 58.5t249.5 161.5t169.5 252.5
t63 322.5q0 172 -63 320.5t-169.5 250t-249.5 159.5t-302 58q-158 0 -301 -58.5t-250 -161t-170 -252.5t-63 -323q0 -171 63 -319.5t170 -250.5t250 -160t301 -58zM635 268v860h440q140 0 223.5 -79t83.5 -209q0 -129 -84 -210t-223 -81h-266v-281h-174zM805 694h254
q69 0 109 41t40 105q0 60 -41 98.5t-108 38.5h-254v-283z" />
    <glyph glyph-name="trademark" unicode="&#x2122;" horiz-adv-x="1368" 
d="M35 1386v113h485v-113h-184v-524h-125v524h-176zM1104 1499h158v-637h-121v283l8 178h-6l-207 -451l-205 451h-8l8 -178v-283h-121v637h156l168 -381h4z" />
    <glyph glyph-name="estimated" unicode="&#x212e;" horiz-adv-x="1597" 
d="M1505 471q-56 -220 -245.5 -354.5t-454.5 -134.5q-219 0 -385.5 95.5t-256 266t-89.5 391.5q0 222 91 393.5t262 268t396 96.5q310 0 497 -179.5t202 -504.5q2 -43 2 -117h-1229v-379q70 -120 209.5 -187t304.5 -67q219 0 384 113.5t218 298.5h94zM295 1149v-383h1010
v420q-93 116 -216 170t-294 51q-324 -6 -500 -258z" />
    <glyph glyph-name="oneeighth" unicode="&#x215b;" horiz-adv-x="1912" 
d="M354 -94l842 1667h201l-842 -1667h-201zM55 1178v145h92q87 0 129.5 44.5t42.5 117.5v8h173v-969h-183v654h-254zM1171 260q0 75 37 135t105 90v11q-68 32 -105 92t-37 135q0 125 95 198.5t252 73.5q156 0 246.5 -75t90.5 -197q0 -73 -35.5 -134.5t-101.5 -92.5v-11
q137 -65 137 -227q0 -125 -93.5 -198.5t-248.5 -73.5q-157 0 -249.5 75t-92.5 199zM1360 702q0 -63 43 -99t113 -36t110.5 37.5t40.5 97.5q0 62 -41.5 98t-109.5 36q-72 0 -114 -37t-42 -97zM1360 279q0 -61 42.5 -97.5t113.5 -36.5q69 0 110 38t41 96q0 64 -41.5 100.5
t-109.5 36.5q-70 0 -113 -37.5t-43 -99.5z" />
    <glyph glyph-name="threeeighths" unicode="&#x215c;" horiz-adv-x="2048" 
d="M489 -94l842 1667h201l-842 -1667h-201zM381 508q-148 0 -238.5 84.5t-87.5 220.5h183q0 -66 40 -105.5t101 -39.5q63 0 103 38t40 95q0 64 -43 99.5t-110 35.5h-80v166h61q73 0 111.5 35.5t38.5 93.5q0 57 -35 86t-90 29q-64 0 -101.5 -40t-35.5 -106h-185
q-3 134 83.5 219.5t240.5 85.5q140 0 226.5 -71.5t86.5 -190.5q0 -65 -32.5 -120.5t-104.5 -88.5v-10q77 -30 116.5 -90t39.5 -141q0 -125 -92.5 -205t-235.5 -80zM1307 260q0 75 36.5 135t104.5 90v11q-68 32 -104.5 92t-36.5 135q0 125 95 198.5t251 73.5t247 -75t91 -197
q0 -73 -36 -134.5t-102 -92.5v-11q138 -66 138 -227q0 -125 -93.5 -198.5t-248.5 -73.5q-157 0 -249.5 75t-92.5 199zM1495 702q0 -63 43 -99t113 -36t110.5 37.5t40.5 97.5q0 62 -41.5 98t-109.5 36q-72 0 -114 -37t-42 -97zM1495 279q0 -61 42.5 -97.5t113.5 -36.5
q69 0 110 38t41 96q0 64 -41.5 100.5t-109.5 36.5q-70 0 -113 -37.5t-43 -99.5z" />
    <glyph glyph-name="fiveeighths" unicode="&#x215d;" horiz-adv-x="2084" 
d="M526 -94l842 1667h201l-842 -1667h-201zM68 821h184q0 -65 42 -109t109 -44q69 0 113.5 48.5t44.5 123.5q0 78 -45 128t-115 50q-52 0 -89.5 -25t-51.5 -63h-174v563h604v-162h-424v-125l-4 -86l4 -4q26 26 75 42t97 16q137 0 223.5 -93t86.5 -235q0 -151 -96 -244.5
t-251 -93.5q-148 0 -240.5 86.5t-92.5 226.5zM1341 260q0 75 37 135t105 90v11q-68 32 -105 92t-37 135q0 125 95 198.5t252 73.5q156 0 246.5 -75t90.5 -197q0 -73 -35.5 -134.5t-101.5 -92.5v-11q137 -65 137 -227q0 -125 -93.5 -198.5t-248.5 -73.5q-157 0 -249.5 75
t-92.5 199zM1530 702q0 -63 43 -99t113 -36t110.5 37.5t40.5 97.5q0 62 -41.5 98t-109.5 36q-72 0 -114 -37t-42 -97zM1530 279q0 -61 42.5 -97.5t113.5 -36.5q69 0 110 38t41 96q0 64 -41.5 100.5t-109.5 36.5q-70 0 -113 -37.5t-43 -99.5z" />
    <glyph glyph-name="seveneighths" unicode="&#x215e;" horiz-adv-x="1880" 
d="M1163 1573h201l-842 -1667h-200zM698 1493v-131q-305 -366 -379 -838h-180q32 228 120 436t220 371h-297v-135h-137v297h653zM1683 485q138 -66 138 -227q0 -125 -93.5 -198.5t-248.5 -73.5q-157 0 -249.5 75t-92.5 199q0 75 36.5 135t104.5 90v11q-68 32 -104.5 92
t-36.5 135q0 125 95 198.5t251 73.5t247 -75t91 -197q0 -73 -36 -134.5t-102 -92.5v-11zM1481 567q70 0 110.5 37.5t40.5 97.5q0 62 -41.5 98t-109.5 36q-72 0 -114 -37t-42 -97q0 -63 43 -99t113 -36zM1481 145q69 0 110 38t41 96q0 64 -41.5 100.5t-109.5 36.5
q-70 0 -113 -37.5t-43 -99.5q0 -61 42.5 -97.5t113.5 -36.5z" />
    <glyph glyph-name="arrowleft" unicode="&#x2190;" horiz-adv-x="1746" 
d="M1552 473h-1241l346 -473h-186l-410 551l410 543h186l-346 -469h1241v-152z" />
    <glyph glyph-name="arrowup" unicode="&#x2191;" horiz-adv-x="1308" 
d="M1151 588l-422 375v-816h422v-147h-993v147h422v816l-422 -375v184l497 436l496 -436v-184z" />
    <glyph glyph-name="arrowright" unicode="&#x2192;" horiz-adv-x="1808" 
d="M197 473v152h1241l-346 469h186l410 -543l-410 -551h-186l346 473h-1241z" />
    <glyph glyph-name="arrowdown" unicode="&#x2193;" horiz-adv-x="1308" 
d="M1151 956h-422v-815l422 373v-184l-496 -434l-497 434v184l422 -373v815h-422v148h993v-148z" />
    <glyph glyph-name="arrowboth" unicode="&#x2194;" horiz-adv-x="2156" 
d="M119 727l428 510h176l-358 -436h1425l-354 436h174l426 -510l-426 -512h-174l354 434h-1425l358 -434h-176z" />
    <glyph glyph-name="arrowupdn" unicode="&#x2195;" horiz-adv-x="1482" 
d="M143 221v187l531 -451v1354l-531 -449v185l602 509l601 -509v-185l-529 449v-1354l529 451v-187l-601 -510z" />
    <glyph glyph-name="uni2196" unicode="&#x2196;" horiz-adv-x="1421" 
d="M1202 0l-835 864v-696h-150v954h930v-153h-676l838 -856z" />
    <glyph glyph-name="uni2197" unicode="&#x2197;" horiz-adv-x="1433" 
d="M334 0l-105 111l822 845h-676v148h928v-954h-150v694z" />
    <glyph glyph-name="uni2198" unicode="&#x2198;" horiz-adv-x="1413" 
d="M264 -4v160h676l-821 837l106 111l822 -848l2 702h149l-2 -958z" />
    <glyph glyph-name="uni2199" unicode="&#x2199;" horiz-adv-x="1409" 
d="M213 0v958h154v-702l819 848l102 -109l-819 -839h678v-156h-934z" />
    <glyph glyph-name="uni21A9" unicode="&#x21a9;" horiz-adv-x="1878" 
d="M1737 1020q0 -210 -133 -337.5t-383 -127.5h-738v-254l-366 332l366 336v-256h738q161 0 259.5 80t98.5 227q0 136 -92 220.5t-246 84.5h-27v154h27q218 0 357 -129.5t139 -329.5z" />
    <glyph glyph-name="uni21AA" unicode="&#x21aa;" horiz-adv-x="1878" 
d="M143 1020q0 200 139 329.5t357 129.5h27v-154h-27q-155 0 -244.5 -85t-89.5 -220q0 -150 96 -228.5t258 -78.5h740v256l364 -336l-364 -332v254h-740q-252 0 -384 127t-132 338z" />
    <glyph glyph-name="uni21B2" unicode="&#x21b2;" horiz-adv-x="1554" 
d="M1249 1534h148v-979h-873v-254l-368 332l368 336v-256h725v821z" />
    <glyph glyph-name="uni21B3" unicode="&#x21b3;" horiz-adv-x="1554" 
d="M1397 633l-367 -332v254h-874v979h147v-821h727v256z" />
    <glyph glyph-name="uni21BA" unicode="&#x21ba;" horiz-adv-x="1687" 
d="M846 -25q-143 0 -270 52t-217.5 141t-143.5 214.5t-53 266.5q0 180 89 346.5t255 272.5l78 -105q-136 -86 -211.5 -216t-75.5 -298q0 -229 158.5 -386t392.5 -157q153 0 277 72t192.5 192.5t68.5 264.5q0 114 -31 194t-120 180.5t-279 266.5l-6 -4l11 -144v-290h-127v655
h634v-135h-286l-129 10l-4 -6q200 -168 297 -275t138.5 -210t41.5 -242q0 -133 -52 -254.5t-141.5 -210.5t-216.5 -142t-270 -53z" />
    <glyph glyph-name="uni21BB" unicode="&#x21bb;" horiz-adv-x="1687" 
d="M838 -25q-188 0 -343.5 88.5t-244 240t-88.5 331.5q0 139 41.5 243t139.5 212.5t294 271.5l-4 6l-135 -10h-285v135h641v-655h-133v290l10 144l-6 4q-143 -125 -224 -206.5t-128.5 -155.5t-61.5 -133.5t-14 -145.5q0 -143 69 -264t193.5 -193t276.5 -72q154 0 280 70.5
t198 195t72 277.5q0 163 -75.5 297t-208.5 217l78 105q164 -103 255 -272.5t91 -346.5q0 -187 -90 -341.5t-248 -243.5t-350 -89z" />
    <glyph glyph-name="emptyset" unicode="&#x2205;" horiz-adv-x="1566" 
d="M793 1511q221 0 383.5 -96t246.5 -268t84 -399q0 -355 -194.5 -561.5t-519.5 -206.5q-219 0 -381.5 96.5t-247 269t-84.5 399.5q0 234 89 408t250 266t374 92zM793 1274q-198 0 -313 -144t-115 -382q0 -147 45 -265l659 691q-109 100 -276 100zM793 219q202 0 317 143.5
t115 382.5q0 137 -37 238l-653 -678q109 -86 258 -86z" />
    <glyph glyph-name="product" unicode="&#x220f;" horiz-adv-x="1556" 
d="M1393 1493v-219h-217v-1274h-252v1274h-287v-1274h-254v1274h-217v219h1227z" />
    <glyph glyph-name="summation" unicode="&#x2211;" horiz-adv-x="1212" 
d="M106 -338v227l482 668v16l-482 691v229h1012v-246h-450l-260 15v-15l466 -684l-475 -649v-14l269 14h450v-252h-1012z" />
    <glyph glyph-name="minus" unicode="&#x2212;" horiz-adv-x="1253" 
d="M164 721h926v-221h-926v221z" />
    <glyph glyph-name="radical" unicode="&#x221a;" horiz-adv-x="1558" 
d="M1227 1493h260l-619 -1667h-333l-312 848h-164v209h349l100 -273l186 -557h15l192 553z" />
    <glyph glyph-name="infinity" unicode="&#x221e;" horiz-adv-x="1800" 
d="M475 111q-184 0 -301 125.5t-117 318.5q0 192 117.5 322.5t300.5 130.5q71 0 135.5 -23.5t117 -67t92 -88.5t79.5 -104q41 60 80 104.5t92.5 88t118 67t137.5 23.5q183 0 299.5 -131t116.5 -322q0 -190 -117 -317t-299 -127q-138 0 -240.5 75t-187.5 203
q-182 -278 -424 -278zM485 330q76 0 144.5 53.5t152.5 173.5q-84 118 -150.5 170.5t-146.5 52.5q-89 0 -144.5 -62t-55.5 -161q0 -100 56 -163.5t144 -63.5zM1313 330q88 0 145.5 63t57.5 164q0 98 -57.5 160.5t-145.5 62.5q-79 0 -145.5 -53t-149.5 -170
q87 -123 151.5 -175t143.5 -52z" />
    <glyph glyph-name="integral" unicode="&#x222b;" horiz-adv-x="1206" 
d="M692 1542h312v-209h-275v-1399q0 -34 -3.5 -60.5t-17 -57t-36 -50.5t-64 -33.5t-98.5 -13.5h-311v207h274v1397q0 31 2 53.5t14.5 56.5t34 55.5t65 37.5t103.5 16z" />
    <glyph glyph-name="approxequal" unicode="&#x2248;" horiz-adv-x="1095" 
d="M168 715q-6 77 10.5 135t48.5 88.5t67.5 44.5t74.5 14q55 0 114 -26t114 -52t101 -26q49 0 75 31t24 88h125q6 -80 -11.5 -138.5t-51 -89.5t-71 -45t-79.5 -14q-65 0 -130 25.5t-117.5 51t-88.5 25.5q-45 0 -65.5 -33t-14.5 -79h-125zM168 305q-6 77 10.5 135t48 88.5
t67 45t75.5 14.5q44 0 91 -16.5t81 -36t77 -36t80 -16.5q49 0 75 30.5t24 86.5h125q5 -65 -6 -116.5t-32.5 -83t-51.5 -52.5t-60 -29t-63 -8q-64 0 -129 27.5t-118 54.5t-89 27q-44 0 -65 -34.5t-15 -80.5h-125z" />
    <glyph glyph-name="notequal" unicode="&#x2260;" horiz-adv-x="1239" 
d="M1075 711h-305l-113 -215h418v-197h-518l-119 -227h-194l118 227h-198v197h301l110 215h-411v200h516l123 236h192l-123 -236h203v-200z" />
    <glyph glyph-name="lessequal" unicode="&#x2264;" horiz-adv-x="1153" 
d="M993 307l-852 361v223l852 354v-254l-344 -125l-272 -80v-16l264 -78l352 -129v-256zM993 0h-852v225h852v-225z" />
    <glyph glyph-name="greaterequal" unicode="&#x2265;" horiz-adv-x="1153" 
d="M160 307v256l352 129l266 78v16l-276 80l-342 125v254l852 -354v-223zM160 0v225h852v-225h-852z" />
    <glyph glyph-name="filledbox" unicode="&#x25a0;" horiz-adv-x="1882" 
d="M225 1493h1434v-1491h-1434v1491z" />
    <glyph glyph-name="uni25A1" unicode="&#x25a1;" horiz-adv-x="1777" 
d="M172 1493h1436v-1493h-1436v1493zM301 1364v-1235h1178v1235h-1178z" />
    <glyph glyph-name="triagup" unicode="&#x25b2;" horiz-adv-x="1972" 
d="M121 0h1730l-866 1509z" />
    <glyph glyph-name="uni25B3" unicode="&#x25b3;" horiz-adv-x="1966" 
d="M129 0l852 1511l858 -1511h-1710zM358 137h1252l-627 1108z" />
    <glyph glyph-name="lozenge" unicode="&#x25ca;" horiz-adv-x="4407" 
d="M2015 -20q-277 0 -438.5 206t-161.5 547q0 158 37.5 288.5t103 220.5t156 152t194 90.5t218.5 28.5q248 0 414.5 -126.5t203.5 -335.5h-319q-35 85 -113 130.5t-188 45.5q-186 0 -281.5 -129t-95.5 -357q0 -237 96 -359t264 -122q137 0 223.5 67.5t106.5 188.5h-332v293
h664v-809h-227l-33 244h-72q-34 -128 -148 -196t-272 -68zM3043 1180q-69 0 -115 47.5t-46 120.5q0 71 46 118t115 47q71 0 113.5 -46.5t42.5 -118.5q0 -76 -42.5 -122t-113.5 -46zM3449 1180q-69 0 -112.5 47t-43.5 121q0 71 44.5 118t111.5 47q74 0 120 -47t46 -118
q0 -74 -45 -121t-121 -47zM80 0v1493h555q324 0 506 -186.5t182 -556.5q0 -186 -48.5 -329t-138.5 -235t-216 -139t-285 -47h-555zM3789 1171v259h-78v63h242v-63h-90v-259h-74zM3994 1171v322h129l34 -260l48 260h124v-322h-81v277l-35 -277h-107l-43 277v-277h-69z
M350 170q54 56 104 81t128 25h53q16 0 32 1t55.5 10t72 25.5t73 51t68 82t46.5 124.5t19 173q0 92 -17.5 167.5t-44.5 123.5t-64 84t-71 54t-71.5 29t-58.5 13.5t-39 2.5h-53q-44 0 -78.5 8t-66 29t-43.5 31.5t-44 41.5l-53 -61q51 -56 65 -81q35 -60 35 -155v-565
q0 -33 -5 -62.5t-9.5 -47t-19 -42t-18.5 -31t-25 -32t-23 -27.5zM2935 0v1006h289l14 -119h55q24 74 101.5 114.5t183.5 40.5v-301q-92 9 -159 -9.5t-105 -61.5t-56 -100.5t-18 -131.5v-438h-305z" />
    <glyph glyph-name="circle" unicode="&#x25cb;" horiz-adv-x="1654" 
d="M827 -20q-156 0 -294.5 56t-239.5 155.5t-160 243.5t-59 313q0 166 59 309.5t160 242.5t239.5 155t294.5 56t294.5 -56t240 -155t160.5 -242.5t59 -309.5q0 -224 -101 -401t-272.5 -272t-380.5 -95zM827 94q128 0 243.5 48.5t200.5 133.5t135 208t50 264
q0 187 -85.5 336.5t-229 231t-314.5 81.5q-127 0 -242 -48t-200.5 -132t-135.5 -206.5t-50 -262.5q0 -141 50 -264t135.5 -208t200.5 -133.5t242 -48.5z" />
    <glyph glyph-name="uni25CF" unicode="&#x25cf;" horiz-adv-x="1837" 
d="M922 -20q-159 0 -298.5 59t-239 161t-157 245t-57.5 305q0 160 57.5 301.5t157 242t239 159t298.5 58.5q157 0 295.5 -58.5t236.5 -159t154.5 -242t56.5 -301.5q0 -130 -36 -248t-103 -212.5t-158 -164.5t-205.5 -107.5t-240.5 -37.5z" />
    <glyph glyph-name="uni262E" unicode="&#x262e;" horiz-adv-x="1753" 
d="M877 1509q160 0 299 -56t239 -155.5t157.5 -243.5t57.5 -313q0 -171 -57 -315.5t-157 -244.5t-239 -156t-300 -56q-160 0 -298.5 56t-238.5 156t-157.5 244.5t-57.5 315.5q0 169 57.5 313t157 243.5t238.5 155.5t299 56zM1526 741q0 142 -46 264.5t-126 209t-190 139
t-238 61.5v-629l542 -337q58 135 58 292zM825 1415q-127 -9 -237 -61.5t-190 -139t-125.5 -209t-45.5 -264.5q0 -157 58 -292l540 337v629zM330 360q80 -128 209 -205t286 -87v598zM926 68q158 10 287.5 86t207.5 204l-495 308v-598z" />
    <glyph glyph-name="uni2639" unicode="&#x2639;" horiz-adv-x="1759" 
d="M121 748q0 164 60 307t162 242.5t241.5 156.5t294.5 57q156 0 295.5 -57t241.5 -156.5t162 -242.5t60 -307q0 -222 -102 -398.5t-275 -273t-382 -96.5q-155 0 -294.5 57t-241.5 156.5t-162 244t-60 310.5zM223 748q0 -127 44.5 -245.5t123.5 -209.5q71 106 203 169.5
t285 63.5q157 0 289 -63.5t204 -169.5q164 198 164 455q0 190 -90 344.5t-239.5 239.5t-325.5 85q-131 0 -251.5 -50.5t-210.5 -137.5t-143 -213t-53 -268zM614 895q0 106 29 161.5t78 55.5q52 0 79 -59.5t27 -157.5q0 -109 -28.5 -163t-77.5 -54q-52 0 -79.5 59.5
t-27.5 157.5zM938 895q0 105 30 161t79 56q52 0 79 -59t27 -158q0 -107 -28.5 -162t-77.5 -55q-53 0 -81 60.5t-28 156.5zM465 225q190 -151 416 -151q230 0 415 151q-54 93 -168.5 149t-246.5 56q-136 0 -249.5 -56t-166.5 -149z" />
    <glyph glyph-name="smileface" unicode="&#x263a;" horiz-adv-x="1759" 
d="M879 1511q156 0 295.5 -57t241.5 -156.5t162 -242.5t60 -307q0 -222 -102 -398.5t-275 -273t-382 -96.5q-155 0 -294.5 57t-241.5 156.5t-162 244t-60 310.5q0 164 60 307t162 242.5t241.5 156.5t294.5 57zM881 74q180 0 330.5 88.5t237.5 243.5t87 342q0 190 -90 344.5
t-239.5 239.5t-325.5 85q-131 0 -251.5 -50.5t-210.5 -137.5t-143 -213t-53 -268q0 -191 90.5 -346.5t241 -241.5t326.5 -86zM721 678q-52 0 -79.5 59.5t-27.5 157.5q0 106 29 161.5t78 55.5q52 0 79 -59.5t27 -157.5q0 -109 -28.5 -163t-77.5 -54zM1047 678q-53 0 -81 60.5
t-28 156.5q0 105 30 161t79 56q52 0 79 -59t27 -158q0 -107 -28.5 -162t-77.5 -55zM1208 674h219v-35h-57q-29 -176 -166 -282.5t-325 -106.5q-189 0 -325 107.5t-165 281.5h-51v35h223v-35h-67q24 -133 132 -213t255 -80q153 0 258.5 81t128.5 212h-60v35z" />
    <glyph glyph-name="uni2708" unicode="&#x2708;" horiz-adv-x="1859" 
d="M182 424l72 326l-72 325h103l141 -221l430 25l-203 565h185l295 -488q20 -29 39 -40.5t59 -12.5l121 8q124 9 223.5 -42.5t99.5 -118.5q0 -71 -99.5 -121t-223.5 -43l-121 8q-40 0 -60 -10.5t-38 -38.5l-295 -492h-185l203 565l-430 29l-141 -223h-103z" />
    <glyph glyph-name="uni2713" unicode="&#x2713;" horiz-adv-x="1839" 
d="M1466 1180l146 -168l-926 -899l-459 530l158 143l311 -360z" />
    <glyph glyph-name="uni2714" unicode="&#x2714;" horiz-adv-x="2635" 
d="M2281 1477l218 -365q-508 -265 -939 -591t-720 -656q-153 211 -319 389t-384 362l246 267q291 -231 487 -545q256 330 618.5 618t792.5 521z" />
    <glyph glyph-name="uni2776" unicode="&#x2776;" horiz-adv-x="1830" 
d="M920 -18q-166 0 -313 61t-252.5 166t-166.5 251t-61 310q0 162 61.5 308t166.5 250.5t252.5 166t312.5 61.5q163 0 309 -61.5t250.5 -166t165.5 -250.5t61 -308q0 -164 -61 -310t-165.5 -251t-250.5 -166t-309 -61zM893 319h158v857h-150v-7q0 -68 -40 -113.5t-126 -45.5
h-73v-123h231v-568z" />
    <glyph glyph-name="uni2777" unicode="&#x2777;" horiz-adv-x="1832" 
d="M920 -18q-222 0 -404 104.5t-285.5 285.5t-103.5 400q0 163 61 308.5t166 249.5t252.5 165t313.5 61q164 0 310 -61t251 -165t166 -249.5t61 -308.5q0 -164 -61 -310.5t-166 -251.5t-251 -166.5t-310 -61.5zM647 319h549v140h-238l-127 -6q16 35 52 71.5t76 65t84 66
t79 74.5t57.5 89.5t22.5 112.5q0 113 -74.5 184.5t-201.5 71.5t-210.5 -74t-84.5 -196l157 -11q-3 65 33 105.5t97 40.5q56 0 89 -33t33 -90q0 -42 -21.5 -79.5t-56.5 -68t-76.5 -62t-83.5 -68t-77 -78t-56.5 -100t-21.5 -126.5v-29z" />
    <glyph glyph-name="uni2778" unicode="&#x2778;" horiz-adv-x="1832" 
d="M920 -18q-166 0 -313 61t-252.5 166t-166.5 251t-61 310q0 163 61 309t166.5 250.5t252.5 165.5t313 61q163 0 309 -61t251 -165.5t166.5 -250.5t61.5 -309q0 -164 -61.5 -310t-166.5 -251t-251 -166t-309 -61zM918 307q128 0 208 70t80 182q0 68 -35 123t-102 82v6
q60 27 90.5 78t30.5 104q0 107 -76.5 171.5t-198.5 64.5q-135 0 -212 -75t-74 -195h159q0 62 30.5 98.5t92.5 36.5q51 0 84 -29t33 -80q0 -52 -36 -85.5t-101 -33.5h-55v-135h71q61 0 99 -33.5t38 -89.5q0 -54 -35.5 -88.5t-93.5 -34.5t-92 37t-32 99h-160
q-3 -126 77.5 -199.5t209.5 -73.5z" />
    <glyph glyph-name="uni2779" unicode="&#x2779;" horiz-adv-x="1837" 
d="M920 -18q-166 0 -313 61.5t-252.5 166.5t-166.5 251.5t-61 310.5q0 162 61 307.5t166.5 250t252.5 165.5t313 61q164 0 310.5 -61t251.5 -165.5t166.5 -250t61.5 -307.5q0 -164 -61.5 -310.5t-166.5 -251.5t-251.5 -166.5t-310.5 -61.5zM963 319h153v187h94v137h-94v533
h-239l-299 -541v-129h385v-187zM750 643l213 379v-379h-213z" />
    <glyph glyph-name="uni277A" unicode="&#x277a;" horiz-adv-x="1835" 
d="M920 -18q-166 0 -313 61t-252.5 166t-166.5 251t-61 310q0 163 61 309t166.5 250.5t252.5 165.5t313 61q164 0 310 -61t251 -165.5t166 -250.5t61 -309q0 -164 -61 -310t-166 -251t-251 -166t-310 -61zM930 309q136 0 219.5 82t83.5 213q0 128 -75.5 209.5t-196.5 81.5
q-45 0 -88.5 -15t-65.5 -38l-6 4l4 80v114h377v136h-531v-492h150q13 34 50 55t79 21q63 0 103 -45.5t40 -116.5q0 -67 -39.5 -109.5t-101.5 -42.5q-65 0 -102 40.5t-37 97.5h-158q-1 -122 82 -198.5t213 -76.5z" />
    <glyph glyph-name="uni277B" unicode="&#x277b;" horiz-adv-x="1859" 
d="M932 -45q-168 0 -317.5 62t-256 169t-169 256t-62.5 316q0 166 62.5 314t169 254t256 168t317.5 62q167 0 316 -62t256 -168t169 -254t62 -314q0 -167 -62.5 -316t-169.5 -256t-256 -169t-315 -62zM934 307q133 0 218 83t85 212q0 127 -73 208t-191 81q-58 0 -111 -26
t-78 -74h-6q0 262 160 262q46 0 81.5 -24t45.5 -68h158q-11 102 -87.5 164.5t-191.5 62.5q-160 0 -244 -121.5t-84 -329.5q0 -201 82 -315.5t236 -114.5zM938 444q-64 0 -102.5 44.5t-38.5 111.5q0 66 38 112t103 46q63 0 101 -43.5t38 -114.5q0 -69 -38 -112.5t-101 -43.5z
" />
    <glyph glyph-name="uni277C" unicode="&#x277c;" horiz-adv-x="1837" 
d="M920 -18q-166 0 -313 61.5t-252.5 166.5t-166.5 251t-61 309t61 309t166.5 250.5t252.5 165.5t313 61q164 0 310.5 -61t251.5 -165.5t166.5 -250.5t61.5 -309q0 -164 -61.5 -310t-166.5 -251t-251.5 -166t-310.5 -61zM737 319h166q71 415 326 748v109h-576v-277h115v141
h266q-111 -147 -189.5 -337t-107.5 -384z" />
    <glyph glyph-name="uni277D" unicode="&#x277d;" horiz-adv-x="1832" 
d="M920 -18q-166 0 -313 61.5t-252.5 166.5t-166.5 251t-61 309t61 309t166.5 250.5t252.5 165.5t313 61q163 0 309 -61t251 -165.5t166.5 -250.5t61.5 -309q0 -164 -61.5 -310t-166.5 -251t-251 -166t-309 -61zM918 307q134 0 218.5 64.5t84.5 175.5q0 62 -33.5 116.5
t-91.5 81.5v9q59 27 92 80t33 116q0 105 -82 171.5t-221 66.5q-135 0 -219.5 -64.5t-84.5 -173.5q0 -64 33 -116.5t92 -79.5v-9q-58 -28 -91.5 -81.5t-33.5 -116.5q0 -107 82.5 -173.5t221.5 -66.5zM918 811q-64 0 -103 33t-39 88q0 54 38 87.5t104 33.5q62 0 100.5 -33
t38.5 -88q0 -53 -37.5 -87t-101.5 -34zM918 444q-62 0 -102 32t-40 89q0 54 38 87.5t104 33.5q62 0 100.5 -33t38.5 -88q0 -54 -37 -87.5t-102 -33.5z" />
    <glyph glyph-name="uni277E" unicode="&#x277e;" horiz-adv-x="1837" 
d="M920 -18q-165 0 -312 61t-252.5 166t-167 251t-61.5 310q0 109 28 211.5t78.5 189t123 158.5t159.5 122t190.5 77.5t213.5 27.5q164 0 310.5 -61t251.5 -165.5t166.5 -250.5t61.5 -309q0 -164 -61.5 -310.5t-167 -251t-252 -165.5t-309.5 -61zM918 307q160 0 242.5 121
t82.5 330q0 201 -80 315.5t-235 114.5q-134 0 -218.5 -82.5t-84.5 -212.5q0 -127 73.5 -207t190.5 -80q59 0 111.5 27t78.5 72h6q0 -263 -161 -263q-45 0 -81 23.5t-46 69.5h-158q12 -102 87.5 -165t191.5 -63zM926 737q-65 0 -103.5 43t-38.5 115q0 69 39 112.5t103 43.5
q63 0 101 -44.5t38 -109.5q0 -68 -37 -114t-102 -46z" />
    <glyph glyph-name="uni2780" unicode="&#x2780;" horiz-adv-x="1830" 
d="M920 -18q-166 0 -313 61t-252.5 166t-166.5 251t-61 310q0 162 61.5 308t166.5 250.5t252.5 166t312.5 61.5q163 0 309 -61.5t250.5 -166t165.5 -250.5t61 -308q0 -164 -61 -310t-165.5 -251t-250.5 -166t-309 -61zM920 66q194 0 355.5 93.5t254 255t92.5 355.5
q0 144 -54.5 274.5t-148 224.5t-224 149t-275.5 55q-148 0 -279.5 -55t-225.5 -149.5t-149 -224.5t-55 -274q0 -194 93 -355.5t256 -255t360 -93.5zM893 319h158v857h-150v-7q0 -65 -40.5 -112t-125.5 -47h-73v-123h231v-568z" />
    <glyph glyph-name="uni2781" unicode="&#x2781;" horiz-adv-x="1832" 
d="M920 1556q164 0 310 -61t251 -165t166 -249.5t61 -308.5q0 -164 -61 -310.5t-166 -251.5t-251 -166.5t-310 -61.5q-222 0 -404 104.5t-285.5 285.5t-103.5 400q0 163 61 308.5t166 249.5t252.5 165t313.5 61zM920 66q194 0 356 93.5t255 255.5t93 357q0 144 -55 274.5
t-148.5 224t-224 149t-276.5 55.5q-148 0 -279.5 -55t-225.5 -149.5t-149 -224.5t-55 -274q0 -195 93 -357t256 -255.5t360 -93.5zM1202 932q0 -70 -31 -130t-79.5 -103.5t-98.5 -81t-96.5 -80.5t-65.5 -84l127 6h238v-140h-549v29q0 68 21.5 126.5t56.5 100t77 78t83.5 68
t76.5 62t56.5 68t21.5 79.5q0 57 -33 90t-89 33q-61 0 -97 -40.5t-33 -105.5l-157 11q1 122 84.5 196t210.5 74t201.5 -71.5t74.5 -184.5z" />
    <glyph glyph-name="uni2782" unicode="&#x2782;" horiz-adv-x="1832" 
d="M920 -18q-166 0 -313 61t-252.5 166t-166.5 251t-61 310q0 163 61 309t166.5 250.5t252.5 165.5t313 61q163 0 309 -61t251 -165.5t166.5 -250.5t61.5 -309q0 -164 -61.5 -310t-166.5 -251t-251 -166t-309 -61zM920 66q194 0 356 93.5t255 255t93 355.5q0 145 -55 275.5
t-148.5 224t-224 148.5t-276.5 55q-148 0 -279.5 -55t-225.5 -149t-149 -224t-55 -275q0 -194 93 -355.5t256 -255t360 -93.5zM918 307q-129 0 -209.5 73.5t-77.5 199.5h160q-2 -62 32 -99t92 -37t93.5 34.5t35.5 88.5q0 56 -38 89.5t-99 33.5h-71v135h55q65 0 101 33.5
t36 85.5q0 51 -33 80t-84 29q-62 0 -92.5 -36.5t-30.5 -98.5h-159q-3 120 74 195t212 75q122 0 198.5 -64.5t76.5 -171.5q0 -53 -30.5 -104t-90.5 -78v-6q67 -27 102 -82t35 -123q0 -112 -80 -182t-208 -70z" />
    <glyph glyph-name="uni2783" unicode="&#x2783;" horiz-adv-x="1837" 
d="M127 772q0 162 61 307.5t166.5 250t252.5 165.5t313 61q164 0 310.5 -61t251.5 -165.5t166.5 -250t61.5 -307.5q0 -164 -61.5 -310.5t-166.5 -251.5t-251.5 -166.5t-310.5 -61.5q-166 0 -313 61.5t-252.5 166.5t-166.5 251.5t-61 310.5zM211 772q0 -195 93 -357
t256 -255.5t360 -93.5q146 0 277 55t224.5 149.5t148 225t54.5 276.5q0 144 -54.5 274t-148 224.5t-224.5 149.5t-277 55q-148 0 -279.5 -55t-225.5 -149.5t-149 -224.5t-55 -274zM578 506v129l299 541h239v-533h94v-137h-94v-187h-153v187h-385zM750 643h213v379z" />
    <glyph glyph-name="uni2784" unicode="&#x2784;" horiz-adv-x="1835" 
d="M920 -18q-166 0 -313 61t-252.5 166t-166.5 251t-61 310q0 163 61 309t166.5 250.5t252.5 165.5t313 61q164 0 310 -61t251 -165.5t166 -250.5t61 -309q0 -164 -61 -310t-166 -251t-251 -166t-310 -61zM920 66q195 0 357 93.5t254.5 255t92.5 355.5q0 195 -92.5 356.5
t-254.5 255t-357 93.5q-197 0 -360 -93.5t-256 -255t-93 -356.5q0 -194 93 -355.5t256 -255t360 -93.5zM930 309q-130 0 -213 76.5t-82 198.5h158q0 -57 37 -97.5t102 -40.5q62 0 101.5 42.5t39.5 109.5q0 71 -40 116.5t-103 45.5q-42 0 -79 -21t-50 -55h-150v492h531v-136
h-377v-114l-4 -80l6 -4q22 23 65.5 38t88.5 15q121 0 196.5 -81.5t75.5 -209.5q0 -131 -83.5 -213t-219.5 -82z" />
    <glyph glyph-name="uni2785" unicode="&#x2785;" horiz-adv-x="1859" 
d="M127 758q0 166 62.5 314t169 254t256 168t317.5 62q167 0 316 -62t256 -168t169 -254t62 -314q0 -167 -62.5 -316t-169.5 -256t-256 -169t-315 -62q-168 0 -317.5 62t-256 169t-169 256t-62.5 316zM213 758q0 -197 94 -361.5t259.5 -260t365.5 -95.5q198 0 363 95.5
t259.5 260t94.5 361.5t-94.5 361t-259.5 259t-363 95q-201 0 -366 -95t-259 -259t-94 -361zM616 737q0 208 84 329.5t244 121.5q115 0 191.5 -62.5t87.5 -164.5h-158q-10 44 -45.5 68t-81.5 24q-160 0 -160 -262h6q25 48 78 74t111 26q118 0 191 -81t73 -208
q0 -129 -85 -212t-218 -83q-154 0 -236 114.5t-82 315.5zM797 600q0 -67 38.5 -111.5t102.5 -44.5q63 0 101 43.5t38 112.5q0 71 -38 114.5t-101 43.5q-65 0 -103 -46t-38 -112z" />
    <glyph glyph-name="uni2786" unicode="&#x2786;" horiz-adv-x="1837" 
d="M920 -18q-166 0 -313 61.5t-252.5 166.5t-166.5 251t-61 309t61 309t166.5 250.5t252.5 165.5t313 61q164 0 310.5 -61t251.5 -165.5t166.5 -250.5t61.5 -309q0 -164 -61.5 -310t-166.5 -251t-251.5 -166t-310.5 -61zM920 66q195 0 357 93.5t254.5 255t92.5 355.5
q0 145 -54.5 275.5t-148 224.5t-224.5 149.5t-277 55.5q-148 0 -279.5 -55.5t-225.5 -149.5t-149 -224.5t-55 -275.5q0 -194 93 -355.5t256 -255t360 -93.5zM737 319q29 194 107.5 384t189.5 337h-266v-141h-115v277h576v-109q-255 -333 -326 -748h-166z" />
    <glyph glyph-name="uni2787" unicode="&#x2787;" horiz-adv-x="1832" 
d="M920 -18q-166 0 -313 61.5t-252.5 166.5t-166.5 251t-61 309t61 309t166.5 250.5t252.5 165.5t313 61q163 0 309 -61t251 -165.5t166.5 -250.5t61.5 -309q0 -164 -61.5 -310t-166.5 -251t-251 -166t-309 -61zM920 66q194 0 355.5 93.5t254 255t92.5 355.5
q0 145 -54.5 275.5t-148 224.5t-223.5 149.5t-276 55.5q-148 0 -279.5 -55.5t-225.5 -149.5t-149 -224.5t-55 -275.5q0 -194 93 -355.5t256 -255t360 -93.5zM918 307q-139 0 -221.5 66.5t-82.5 173.5q0 63 33.5 116.5t91.5 81.5v9q-59 27 -92 79.5t-33 116.5
q0 109 84.5 173.5t219.5 64.5q139 0 221 -66.5t82 -171.5q0 -63 -33 -116t-92 -80v-9q58 -27 91.5 -81.5t33.5 -116.5q0 -111 -84.5 -175.5t-218.5 -64.5zM918 811q64 0 101.5 34t37.5 87q0 55 -38.5 88t-100.5 33q-66 0 -104 -33.5t-38 -87.5q0 -55 39 -88t103 -33z
M918 444q65 0 102 33.5t37 87.5q0 55 -38.5 88t-100.5 33q-66 0 -104 -33.5t-38 -87.5q0 -57 40 -89t102 -32z" />
    <glyph glyph-name="uni2788" unicode="&#x2788;" horiz-adv-x="1837" 
d="M920 -18q-165 0 -312 61t-252.5 166t-167 251t-61.5 310q0 109 28 211.5t78.5 189t123 158.5t159.5 122t190.5 77.5t213.5 27.5q164 0 310.5 -61t251.5 -165.5t166.5 -250.5t61.5 -309q0 -164 -61.5 -310.5t-167 -251t-252 -165.5t-309.5 -61zM920 66q195 0 357 93.5
t254.5 255t92.5 355.5q0 145 -54.5 275t-148 224t-224.5 149t-277 55q-148 0 -279.5 -55t-225.5 -149t-149 -224t-55 -275q0 -194 93 -355.5t256 -255t360 -93.5zM918 307q-116 0 -191.5 63t-87.5 165h158q10 -46 46 -69.5t81 -23.5q161 0 161 263h-6q-26 -45 -78.5 -72
t-111.5 -27q-117 0 -190.5 80t-73.5 207q0 130 84.5 212.5t218.5 82.5q155 0 235 -114.5t80 -315.5q0 -209 -82.5 -330t-242.5 -121zM926 737q65 0 102 46t37 114q0 65 -38 109.5t-101 44.5q-64 0 -103 -43.5t-39 -112.5q0 -72 38.5 -115t103.5 -43z" />
    <glyph glyph-name="uniECE0" unicode="&#xece0;" horiz-adv-x="2125" 
d="M295 121l-180 -133v1505h725l-150 -190h-395v-465h305q23 189 126.5 342.5t265.5 241t351 87.5q185 0 346.5 -87t266.5 -242l-154 -113q-74 115 -200.5 185.5t-262.5 70.5q-148 0 -275 -76t-202.5 -208.5t-75.5 -290.5q0 -118 44.5 -225.5t119.5 -184.5t177 -122.5
t212 -45.5q139 0 263 69t198 185l156 -113q-106 -157 -268 -243t-345 -86q-186 0 -347.5 86t-266.5 239t-129 344h-305v-530zM1094 748q0 -108 70.5 -185.5t172.5 -77.5q65 0 123 35.5t94 95.5l150 -114q-61 -96 -157.5 -148.5t-205.5 -52.5q-179 0 -307.5 131.5
t-128.5 315.5q0 181 128.5 311.5t307.5 130.5q109 0 206 -53.5t157 -147.5l-150 -115q-33 58 -91 94t-126 36q-102 0 -172.5 -75t-70.5 -181z" />
    <glyph glyph-name="uniEFCC" unicode="&#xefcc;" horiz-adv-x="2443" 
d="M229 739q0 341 205.5 552.5t536.5 211.5q50 0 78 -4v-217q-44 6 -76 6q-239 0 -385 -152t-146 -397q0 -244 146 -395t385 -151q47 0 76 6v-219q-45 -5 -78 -5q-219 0 -387.5 95t-261.5 269t-93 400zM1509 750q0 342 197.5 547.5t531.5 205.5q55 0 91 -4v-217q-43 6 -82 6
q-96 0 -180 -25.5t-154.5 -76.5t-117.5 -136.5t-60 -197.5h438v-205h-438q13 -112 60.5 -198t118 -136.5t154.5 -76t179 -25.5q57 0 82 6v-219q-40 -4 -91 -4q-221 0 -386.5 93.5t-254 264.5t-88.5 398z" />
    <glyph glyph-name="uniF8FF" unicode="&#xf8ff;" horiz-adv-x="1310" 
d="M879 1294q-37 -46 -93 -76t-94 -37l-37 -7l-1 21q-2 21 -1 39.5t6 47t19.5 61t38.5 64.5q30 40 65.5 69t65 41.5t54.5 19.5t40 7h14q1 -5 1.5 -14.5t-1.5 -38.5t-8.5 -57.5t-24 -67.5t-44.5 -72zM432 0q-89 0 -181 110t-150 274.5t-58 317.5q0 108 32 198.5t84 148
t116 89t131 31.5q61 0 143 -34.5t115 -34.5q31 0 72 18.5t93.5 37t112.5 18.5q56 0 106.5 -16t82.5 -39t55.5 -46t33.5 -39l11 -16q-7 -4 -18 -11t-39 -33t-50 -56.5t-39.5 -82t-17.5 -108.5q0 -64 21 -120t50.5 -90.5t59.5 -59.5t51 -35l21 -10q-3 -9 -7.5 -23.5t-21.5 -57
t-35.5 -81.5t-49 -86t-62 -81t-74 -57.5t-86.5 -23.5q-41 0 -120.5 29.5t-127.5 29.5q-51 0 -135.5 -30.5t-118.5 -30.5z" />
    <glyph glyph-name="uni00A40301" horiz-adv-x="833" 
d="M528 1579l-77 125l403 303l109 -182zM666 432q0 -121 -32.5 -209t-94 -139.5t-140.5 -75.5t-180 -24q-130 0 -186 16v225q53 -12 141 -12q110 0 166.5 58.5t56.5 187.5v1034h269v-1061z" />
    <glyph glyph-name="G.ss01" horiz-adv-x="1585" 
d="M805 -20q-328 0 -526.5 209t-198.5 552q0 228 90 403t254.5 271t380.5 96q268 0 453 -142t219 -374h-289q-24 130 -128.5 203.5t-256.5 73.5q-205 0 -323 -141.5t-118 -387.5q0 -248 117.5 -389t329.5 -141q177 0 292 98.5t122 259.5h-398v224h680v-123
q0 -206 -87.5 -363t-246.5 -243t-366 -86z" />
    <glyph glyph-name="Gbreve.ss01" horiz-adv-x="1585" 
d="M1110 1907q0 -139 -85 -226.5t-232 -87.5q-145 0 -229.5 88t-84.5 226h160q0 -78 42 -123t112 -45t112.5 45t42.5 123h162zM805 -20q-328 0 -526.5 209t-198.5 552q0 228 90 403t254.5 271t380.5 96q268 0 453 -142t219 -374h-289q-24 130 -128.5 203.5t-256.5 73.5
q-205 0 -323 -141.5t-118 -387.5q0 -248 117.5 -389t329.5 -141q177 0 292 98.5t122 259.5h-398v224h680v-123q0 -206 -87.5 -363t-246.5 -243t-366 -86z" />
    <glyph glyph-name="uni0122.ss01" horiz-adv-x="1585" 
d="M805 -20q-328 0 -526.5 209t-198.5 552q0 228 90 403t254.5 271t380.5 96q268 0 453 -142t219 -374h-289q-24 130 -128.5 203.5t-256.5 73.5q-205 0 -323 -141.5t-118 -387.5q0 -248 117.5 -389t329.5 -141q177 0 292 98.5t122 259.5h-398v224h680v-123
q0 -206 -87.5 -363t-246.5 -243t-366 -86zM694 -545v74q101 0 101 92v27h-111v237h221v-239q0 -191 -211 -191z" />
    <glyph glyph-name="Gdotaccent.ss01" horiz-adv-x="1585" 
d="M690 1616v276h209v-276h-209zM805 -20q-328 0 -526.5 209t-198.5 552q0 228 90 403t254.5 271t380.5 96q268 0 453 -142t219 -374h-289q-24 130 -128.5 203.5t-256.5 73.5q-205 0 -323 -141.5t-118 -387.5q0 -248 117.5 -389t329.5 -141q177 0 292 98.5t122 259.5h-398
v224h680v-123q0 -206 -87.5 -363t-246.5 -243t-366 -86z" />
    <glyph glyph-name="R.ss02" horiz-adv-x="1452" 
d="M180 0v1493h654q244 0 381 -129.5t137 -347.5q0 -148 -74.5 -258.5t-200.5 -155.5v-16q47 -19 80.5 -66.5t69.5 -136.5l155 -383h-297l-155 391q-38 91 -84.5 119.5t-140.5 28.5h-261v-539h-264zM444 760h353q131 0 201.5 65t70.5 183q0 121 -73 182t-199 61h-353v-491z
" />
    <glyph glyph-name="Racute.ss02" horiz-adv-x="1452" 
d="M764 1579l-78 125l404 303l108 -182zM180 0v1493h654q244 0 381 -129.5t137 -347.5q0 -148 -74.5 -258.5t-200.5 -155.5v-16q47 -19 80.5 -66.5t69.5 -136.5l155 -383h-297l-155 391q-38 91 -84.5 119.5t-140.5 28.5h-261v-539h-264zM444 760h353q131 0 201.5 65
t70.5 183q0 121 -73 182t-199 61h-353v-491z" />
    <glyph glyph-name="Rcaron.ss02" horiz-adv-x="1452" 
d="M422 1884l123 117l221 -236l219 236l125 -117l-268 -272h-152zM180 0v1493h654q244 0 381 -129.5t137 -347.5q0 -148 -74.5 -258.5t-200.5 -155.5v-16q47 -19 80.5 -66.5t69.5 -136.5l155 -383h-297l-155 391q-38 91 -84.5 119.5t-140.5 28.5h-261v-539h-264zM444 760
h353q131 0 201.5 65t70.5 183q0 121 -73 182t-199 61h-353v-491z" />
    <glyph glyph-name="uni0156.ss02" horiz-adv-x="1452" 
d="M180 0v1493h654q244 0 381 -129.5t137 -347.5q0 -148 -74.5 -258.5t-200.5 -155.5v-16q47 -19 80.5 -66.5t69.5 -136.5l155 -383h-297l-155 391q-38 91 -84.5 119.5t-140.5 28.5h-261v-539h-264zM444 760h353q131 0 201.5 65t70.5 183q0 121 -73 182t-199 61h-353v-491z
M666 -545v74q100 0 100 92v27h-111v237h222v-239q0 -191 -211 -191z" />
    <glyph glyph-name="i.loclTRK" horiz-adv-x="550" 
d="M156 1208v277h245v-277h-245zM150 0v1085h253v-1085h-253z" />
    <glyph glyph-name="uni006A0301" horiz-adv-x="557" 
d="M281 1171l-78 125l403 303l109 -182zM72 -365q-84 0 -133 11v194q27 -6 57 -6q96 0 127 40.5t31 129.5v1081h254v-1099q0 -162 -80 -256.5t-256 -94.5z" />
    <glyph glyph-name="germandbls.alt01" horiz-adv-x="1402" 
d="M180 0v1032q0 227 137.5 353t372.5 126q192 0 329.5 -89.5t182.5 -239.5l-223 -316q154 -35 244 -147t90 -270q0 -208 -150.5 -328.5t-402.5 -120.5h-182v233h135q150 0 236.5 60.5t86.5 187.5q0 254 -399 244l293 444q-26 53 -94 85t-146 32q-114 0 -179 -64.5
t-65 -174.5v-1047h-266z" />
    <glyph glyph-name="a.ss01" horiz-adv-x="1306" 
d="M1159 1085v-1085h-256v199h-14q-41 -100 -137.5 -159.5t-229.5 -59.5q-203 0 -325.5 151.5t-122.5 411.5q0 256 122 409.5t330 153.5q126 0 223 -58.5t140 -158.5h14l31 196h225zM903 592q0 129 -82 214t-209 85q-124 0 -202 -87t-78 -259q0 -169 76.5 -260.5
t205.5 -91.5t209 83.5t80 215.5v100z" />
    <glyph glyph-name="aacute.ss01" horiz-adv-x="1306" 
d="M588 1188l-78 125l403 303l109 -182zM1159 1085v-1085h-256v199h-14q-41 -100 -137.5 -159.5t-229.5 -59.5q-203 0 -325.5 151.5t-122.5 411.5q0 256 122 409.5t330 153.5q126 0 223 -58.5t140 -158.5h14l31 196h225zM903 592q0 129 -82 214t-209 85q-124 0 -202 -87
t-78 -259q0 -169 76.5 -260.5t205.5 -91.5t209 83.5t80 215.5v100z" />
    <glyph glyph-name="abreve.ss01" horiz-adv-x="1306" 
d="M905 1516q0 -139 -85 -226.5t-232 -87.5q-145 0 -229.5 88t-84.5 226h160q0 -78 42 -123t112 -45t112.5 45t42.5 123h162zM1159 1085v-1085h-256v199h-14q-41 -100 -137.5 -159.5t-229.5 -59.5q-203 0 -325.5 151.5t-122.5 411.5q0 256 122 409.5t330 153.5
q126 0 223 -58.5t140 -158.5h14l31 196h225zM903 592q0 129 -82 214t-209 85q-124 0 -202 -87t-78 -259q0 -169 76.5 -260.5t205.5 -91.5t209 83.5t80 215.5v100z" />
    <glyph glyph-name="acircumflex.ss01" horiz-adv-x="1306" 
d="M248 1311l268 268h152l268 -268l-125 -119l-219 233l-223 -233zM1159 1085v-1085h-256v199h-14q-41 -100 -137.5 -159.5t-229.5 -59.5q-203 0 -325.5 151.5t-122.5 411.5q0 256 122 409.5t330 153.5q126 0 223 -58.5t140 -158.5h14l31 196h225zM903 592q0 129 -82 214
t-209 85q-124 0 -202 -87t-78 -259q0 -169 76.5 -260.5t205.5 -91.5t209 83.5t80 215.5v100z" />
    <glyph glyph-name="adieresis.ss01" horiz-adv-x="1306" 
d="M279 1225v276h208v-276h-208zM690 1225v276h211v-276h-211zM1159 1085v-1085h-256v199h-14q-41 -100 -137.5 -159.5t-229.5 -59.5q-203 0 -325.5 151.5t-122.5 411.5q0 256 122 409.5t330 153.5q126 0 223 -58.5t140 -158.5h14l31 196h225zM903 592q0 129 -82 214
t-209 85q-124 0 -202 -87t-78 -259q0 -169 76.5 -260.5t205.5 -91.5t209 83.5t80 215.5v100z" />
    <glyph glyph-name="agrave.ss01" horiz-adv-x="1306" 
d="M590 1194l-434 244l108 182l404 -301zM1159 1085v-1085h-256v199h-14q-41 -100 -137.5 -159.5t-229.5 -59.5q-203 0 -325.5 151.5t-122.5 411.5q0 256 122 409.5t330 153.5q126 0 223 -58.5t140 -158.5h14l31 196h225zM903 592q0 129 -82 214t-209 85q-124 0 -202 -87
t-78 -259q0 -169 76.5 -260.5t205.5 -91.5t209 83.5t80 215.5v100z" />
    <glyph glyph-name="amacron.ss01" horiz-adv-x="1306" 
d="M244 1219v188h690v-188h-690zM1159 1085v-1085h-256v199h-14q-41 -100 -137.5 -159.5t-229.5 -59.5q-203 0 -325.5 151.5t-122.5 411.5q0 256 122 409.5t330 153.5q126 0 223 -58.5t140 -158.5h14l31 196h225zM903 592q0 129 -82 214t-209 85q-124 0 -202 -87t-78 -259
q0 -169 76.5 -260.5t205.5 -91.5t209 83.5t80 215.5v100z" />
    <glyph glyph-name="aogonek.ss01" horiz-adv-x="1306" 
d="M1094 -254q56 0 120 25v-140q-74 -30 -167 -30q-108 1 -174 58t-66 148q0 117 96 197v195h-14q-41 -100 -137.5 -159.5t-229.5 -59.5q-203 0 -325.5 151.5t-122.5 411.5q0 256 122 409.5t330 153.5q126 0 223 -58.5t140 -158.5h14l31 196h225v-1085h-14
q-180 -39 -180 -160q0 -45 34.5 -69.5t94.5 -24.5zM614 193q129 0 209 83.5t80 215.5v100q0 129 -82 214t-209 85q-124 0 -202 -87t-78 -259q0 -169 76.5 -260.5t205.5 -91.5z" />
    <glyph glyph-name="aring.ss01" horiz-adv-x="1306" 
d="M934 1085h225v-1085h-256v199h-14q-41 -100 -137.5 -159.5t-229.5 -59.5q-203 0 -325.5 151.5t-122.5 411.5q0 210 83.5 353t231.5 189q-70 64 -70 175q0 106 69 171.5t177 65.5q109 0 177.5 -65t68.5 -172q0 -130 -94 -195q124 -62 172 -176h14zM567 1370
q-47 0 -75.5 -30t-28.5 -80t28.5 -80.5t75.5 -30.5q45 0 74 31t29 80t-29 79.5t-74 30.5zM903 492v100q0 129 -82 214t-209 85q-124 0 -202 -87t-78 -259q0 -169 76.5 -260.5t205.5 -91.5t209 83.5t80 215.5z" />
    <glyph glyph-name="atilde.ss01" horiz-adv-x="1306" 
d="M723 1204q-52 -1 -99.5 19.5t-88.5 41t-78 19.5q-35 -1 -61 -19t-54 -53l-104 72q83 179 225 182q52 1 133.5 -39t126.5 -38q31 1 56.5 15t35.5 26t23 32l106 -71q-39 -92 -96 -138.5t-125 -48.5zM1159 1085v-1085h-256v199h-14q-41 -100 -137.5 -159.5t-229.5 -59.5
q-203 0 -325.5 151.5t-122.5 411.5q0 256 122 409.5t330 153.5q126 0 223 -58.5t140 -158.5h14l31 196h225zM903 592q0 129 -82 214t-209 85q-124 0 -202 -87t-78 -259q0 -169 76.5 -260.5t205.5 -91.5t209 83.5t80 215.5v100z" />
    <glyph glyph-name="g.ss01" horiz-adv-x="1290" 
d="M369 -33q7 -67 73.5 -106t169.5 -39q134 0 205.5 64.5t71.5 174.5v187h-17q-42 -95 -135 -151t-213 -56q-200 0 -325 147t-125 385q0 235 124.5 384t331.5 149q125 0 219 -56.5t138 -160.5h16l17 196h221v-995q0 -214 -143 -333t-386 -119q-217 0 -349 90.5t-144 238.5
h250zM608 246q122 0 201.5 80.5t79.5 199.5v80q0 120 -80 200.5t-199 80.5q-120 0 -198 -84.5t-78 -235.5q0 -153 77.5 -237t196.5 -84z" />
    <glyph glyph-name="gbreve.ss01" horiz-adv-x="1290" 
d="M864 1518q0 -139 -85 -226.5t-232 -87.5q-145 0 -229.5 88t-84.5 226h160q0 -78 42 -123t112 -45t112.5 45t42.5 123h162zM369 -33q7 -67 73.5 -106t169.5 -39q134 0 205.5 64.5t71.5 174.5v187h-17q-42 -95 -135 -151t-213 -56q-200 0 -325 147t-125 385
q0 235 124.5 384t331.5 149q125 0 219 -56.5t138 -160.5h16l17 196h221v-995q0 -214 -143 -333t-386 -119q-217 0 -349 90.5t-144 238.5h250zM608 246q122 0 201.5 80.5t79.5 199.5v80q0 120 -80 200.5t-199 80.5q-120 0 -198 -84.5t-78 -235.5q0 -153 77.5 -237t196.5 -84z
" />
    <glyph glyph-name="uni0123.ss01" horiz-adv-x="1290" 
d="M647 1690v-74q-100 0 -100 -94v-56h110v-235h-219v268q0 191 209 191zM369 -33q7 -67 73.5 -106t169.5 -39q134 0 205.5 64.5t71.5 174.5v187h-17q-42 -95 -135 -151t-213 -56q-200 0 -325 147t-125 385q0 235 124.5 384t331.5 149q125 0 219 -56.5t138 -160.5h16l17 196
h221v-995q0 -214 -143 -333t-386 -119q-217 0 -349 90.5t-144 238.5h250zM608 246q122 0 201.5 80.5t79.5 199.5v80q0 120 -80 200.5t-199 80.5q-120 0 -198 -84.5t-78 -235.5q0 -153 77.5 -237t196.5 -84z" />
    <glyph glyph-name="gdotaccent.ss01" horiz-adv-x="1290" 
d="M444 1227v276h209v-276h-209zM369 -33q7 -67 73.5 -106t169.5 -39q134 0 205.5 64.5t71.5 174.5v187h-17q-42 -95 -135 -151t-213 -56q-200 0 -325 147t-125 385q0 235 124.5 384t331.5 149q125 0 219 -56.5t138 -160.5h16l17 196h221v-995q0 -214 -143 -333t-386 -119
q-217 0 -349 90.5t-144 238.5h250zM608 246q122 0 201.5 80.5t79.5 199.5v80q0 120 -80 200.5t-199 80.5q-120 0 -198 -84.5t-78 -235.5q0 -153 77.5 -237t196.5 -84z" />
    <glyph glyph-name="a.ss02" horiz-adv-x="1157" 
d="M72 307q0 163 111.5 252.5t303.5 89.5h291v74q0 95 -55.5 141.5t-157.5 46.5q-98 0 -154.5 -45t-56.5 -121h-248q12 169 140.5 265t337.5 96q220 0 334 -106.5t114 -299.5v-700h-225l-23 180h-16q-37 -97 -127.5 -148.5t-212.5 -51.5q-163 0 -259.5 89t-96.5 238z
M330 330q0 -72 48 -112t134 -40q121 0 193.5 72t72.5 190v43h-239q-105 0 -157 -40t-52 -113z" />
    <glyph glyph-name="aacute.ss02" horiz-adv-x="1157" 
d="M578 1188l-78 125l403 303l109 -182zM72 307q0 163 111.5 252.5t303.5 89.5h291v74q0 95 -55.5 141.5t-157.5 46.5q-98 0 -154.5 -45t-56.5 -121h-248q12 169 140.5 265t337.5 96q220 0 334 -106.5t114 -299.5v-700h-225l-23 180h-16q-37 -97 -127.5 -148.5t-212.5 -51.5
q-163 0 -259.5 89t-96.5 238zM330 330q0 -72 48 -112t134 -40q121 0 193.5 72t72.5 190v43h-239q-105 0 -157 -40t-52 -113z" />
    <glyph glyph-name="abreve.ss02" horiz-adv-x="1157" 
d="M895 1516q0 -139 -85 -226.5t-232 -87.5q-145 0 -229.5 88t-84.5 226h160q0 -78 42 -123t112 -45t112.5 45t42.5 123h162zM72 307q0 163 111.5 252.5t303.5 89.5h291v74q0 95 -55.5 141.5t-157.5 46.5q-98 0 -154.5 -45t-56.5 -121h-248q12 169 140.5 265t337.5 96
q220 0 334 -106.5t114 -299.5v-700h-225l-23 180h-16q-37 -97 -127.5 -148.5t-212.5 -51.5q-163 0 -259.5 89t-96.5 238zM330 330q0 -72 48 -112t134 -40q121 0 193.5 72t72.5 190v43h-239q-105 0 -157 -40t-52 -113z" />
    <glyph glyph-name="acircumflex.ss02" horiz-adv-x="1157" 
d="M238 1311l268 268h151l269 -268l-125 -119l-219 233l-224 -233zM72 307q0 163 111.5 252.5t303.5 89.5h291v74q0 95 -55.5 141.5t-157.5 46.5q-98 0 -154.5 -45t-56.5 -121h-248q12 169 140.5 265t337.5 96q220 0 334 -106.5t114 -299.5v-700h-225l-23 180h-16
q-37 -97 -127.5 -148.5t-212.5 -51.5q-163 0 -259.5 89t-96.5 238zM330 330q0 -72 48 -112t134 -40q121 0 193.5 72t72.5 190v43h-239q-105 0 -157 -40t-52 -113z" />
    <glyph glyph-name="adieresis.ss02" horiz-adv-x="1157" 
d="M268 1225v276h209v-276h-209zM680 1225v276h211v-276h-211zM72 307q0 163 111.5 252.5t303.5 89.5h291v74q0 95 -55.5 141.5t-157.5 46.5q-98 0 -154.5 -45t-56.5 -121h-248q12 169 140.5 265t337.5 96q220 0 334 -106.5t114 -299.5v-700h-225l-23 180h-16
q-37 -97 -127.5 -148.5t-212.5 -51.5q-163 0 -259.5 89t-96.5 238zM330 330q0 -72 48 -112t134 -40q121 0 193.5 72t72.5 190v43h-239q-105 0 -157 -40t-52 -113z" />
    <glyph glyph-name="agrave.ss02" horiz-adv-x="1157" 
d="M580 1194l-435 244l109 182l403 -301zM72 307q0 163 111.5 252.5t303.5 89.5h291v74q0 95 -55.5 141.5t-157.5 46.5q-98 0 -154.5 -45t-56.5 -121h-248q12 169 140.5 265t337.5 96q220 0 334 -106.5t114 -299.5v-700h-225l-23 180h-16q-37 -97 -127.5 -148.5
t-212.5 -51.5q-163 0 -259.5 89t-96.5 238zM330 330q0 -72 48 -112t134 -40q121 0 193.5 72t72.5 190v43h-239q-105 0 -157 -40t-52 -113z" />
    <glyph glyph-name="amacron.ss02" horiz-adv-x="1157" 
d="M233 1219v188h691v-188h-691zM72 307q0 163 111.5 252.5t303.5 89.5h291v74q0 95 -55.5 141.5t-157.5 46.5q-98 0 -154.5 -45t-56.5 -121h-248q12 169 140.5 265t337.5 96q220 0 334 -106.5t114 -299.5v-700h-225l-23 180h-16q-37 -97 -127.5 -148.5t-212.5 -51.5
q-163 0 -259.5 89t-96.5 238zM330 330q0 -72 48 -112t134 -40q121 0 193.5 72t72.5 190v43h-239q-105 0 -157 -40t-52 -113z" />
    <glyph glyph-name="aogonek.ss02" horiz-adv-x="1157" 
d="M981 -254q57 0 121 25v-140q-74 -30 -168 -30q-108 1 -174 58t-66 148q0 129 111 207l-21 166h-16q-37 -97 -127.5 -148.5t-212.5 -51.5q-163 0 -259.5 89t-96.5 238q0 163 111.5 252.5t303.5 89.5h291v74q0 95 -55.5 141.5t-157.5 46.5q-98 0 -154.5 -45t-56.5 -121
h-248q12 169 140.5 265t337.5 96q220 0 334 -106.5t114 -299.5v-700q-180 -39 -180 -160q0 -45 34.5 -69.5t94.5 -24.5zM778 440v43h-239q-105 0 -157 -40t-52 -113q0 -72 48 -112t134 -40q121 0 193.5 72t72.5 190z" />
    <glyph glyph-name="aring.ss02" horiz-adv-x="1157" 
d="M752 1085q138 -36 209 -135t71 -250v-700h-225l-23 180h-16q-37 -97 -127.5 -148.5t-212.5 -51.5q-163 0 -259.5 89t-96.5 238q0 163 111.5 252.5t303.5 89.5h291v74q0 95 -55.5 141.5t-157.5 46.5q-98 0 -154.5 -45t-56.5 -121h-248q9 129 88.5 216.5t213.5 123.5
q-76 66 -76 179q0 106 69 171.5t179 65.5q108 0 176.5 -65.5t68.5 -171.5q0 -112 -73 -179zM580 1374q-46 0 -74.5 -30.5t-28.5 -79.5t28.5 -80t74.5 -31t74 30.5t28 80.5q0 49 -28 79.5t-74 30.5zM778 440v43h-239q-105 0 -157 -40t-52 -113q0 -72 48 -112t134 -40
q121 0 193.5 72t72.5 190z" />
    <glyph glyph-name="atilde.ss02" horiz-adv-x="1157" 
d="M713 1204q-52 -1 -100 19.5t-89 41t-78 19.5q-35 -1 -60.5 -19t-53.5 -53l-105 72q83 179 226 182q52 1 133.5 -39t126.5 -38q31 1 56.5 15.5t34.5 25.5t23 32l107 -71q-39 -92 -96 -138.5t-125 -48.5zM72 307q0 163 111.5 252.5t303.5 89.5h291v74q0 95 -55.5 141.5
t-157.5 46.5q-98 0 -154.5 -45t-56.5 -121h-248q12 169 140.5 265t337.5 96q220 0 334 -106.5t114 -299.5v-700h-225l-23 180h-16q-37 -97 -127.5 -148.5t-212.5 -51.5q-163 0 -259.5 89t-96.5 238zM330 330q0 -72 48 -112t134 -40q121 0 193.5 72t72.5 190v43h-239
q-105 0 -157 -40t-52 -113z" />
    <glyph glyph-name="h_t_t_p" horiz-adv-x="4200" 
d="M3949 1556v-1918h-1336v1126h-364v-555h217v-186h-248q-95 0 -147 44t-52 156v541h-397v-555h217v-186h-250q-95 0 -145.5 44t-50.5 156v541h-193v184h193v287h229v-287h397v287h230v-287h567l25 -182h16q38 95 129.5 149t210.5 54q192 0 307 -134t115 -346
q0 -216 -118 -350.5t-308 -134.5q-122 0 -211 55t-125 150h-16v-420h946v1614h-3371v-637h16q43 98 133 150.5t203 52.5q167 0 257.5 -111.5t90.5 -302.5v-532h-227v512q0 118 -57.5 180.5t-155.5 62.5q-118 0 -189 -85t-71 -222v-682h2050v-151h-2214v1918h3697zM2841 537
v-99q0 -98 78.5 -169.5t195.5 -71.5q127 0 199.5 84t72.5 211q0 129 -74 207.5t-194 78.5q-117 0 -197.5 -73.5t-80.5 -167.5z" />
    <glyph glyph-name="w_w_w" horiz-adv-x="4100" 
d="M315 0l-301 1085h258l125 -503l70 -344h12l174 847h254l174 -847h11l194 847h258l195 -847h12l174 847h254l174 -847h10l195 847h258l195 -847h12l174 847h254l174 -847h10l72 340l123 507h256l-303 -1085h-289l-166 776h-12l-160 -776h-295l-176 715l-174 -715h-291
l-164 776h-12l-160 -776h-297l-174 711l-174 -711h-289l-166 776h-12l-162 -776h-295z" />
    <glyph glyph-name="g_g.ss01" horiz-adv-x="2580" 
d="M369 -33q7 -67 73.5 -106t169.5 -39q134 0 205.5 64.5t71.5 174.5v187h-17q-42 -95 -135 -151t-213 -56q-200 0 -325 147t-125 385q0 235 124.5 384t331.5 149q125 0 219 -56.5t138 -160.5h16l17 196h221v-995q0 -214 -143 -333t-386 -119q-217 0 -349 90.5t-144 238.5
h250zM1659 -33q7 -67 73.5 -106t170.5 -39q133 0 204.5 64.5t71.5 174.5v187h-16q-42 -95 -135 -151t-213 -56q-200 0 -325.5 147t-125.5 385q0 235 125 384t332 149q125 0 218.5 -56t137.5 -161h16l17 196h221v-995q0 -214 -142.5 -333t-385.5 -119q-217 0 -349.5 90.5
t-144.5 238.5h250zM608 246q122 0 201.5 80.5t79.5 199.5v80q0 120 -80 200.5t-199 80.5q-120 0 -198 -84.5t-78 -235.5q0 -153 77.5 -237t196.5 -84zM1898 246q122 0 201.5 80.5t79.5 199.5v80q0 120 -79.5 200.5t-198.5 80.5q-120 0 -198.5 -84.5t-78.5 -235.5
q0 -153 77.5 -237t196.5 -84z" />
    <glyph glyph-name="zero.ss01" horiz-adv-x="1290" 
d="M645 -12q-247 0 -391.5 195.5t-144.5 559.5q0 185 40 329.5t112.5 236t170 139t215.5 47.5q244 0 388.5 -195.5t144.5 -556.5q0 -368 -147 -561.5t-388 -193.5zM643 213q143 0 206.5 135t63.5 387q0 281 -68.5 409t-199.5 128q-143 0 -206.5 -134t-63.5 -386
q0 -280 68.5 -409.5t199.5 -129.5zM543 651v180h198v-180h-198z" />
    <glyph glyph-name="zero.tf" horiz-adv-x="1269" 
d="M637 1495q244 0 388 -195.5t144 -556.5q0 -368 -146.5 -561.5t-387.5 -193.5q-247 0 -392 195.5t-145 559.5q0 185 40 329.5t112.5 236t170 139t216.5 47.5zM635 1272q-143 0 -206.5 -134t-63.5 -386v-43l516 295q-55 268 -246 268zM633 213q143 0 206.5 135t63.5 387v45
l-518 -295q56 -272 248 -272z" />
    <glyph glyph-name="one.tf" horiz-adv-x="1269" 
d="M786 217h359v-217h-1020v217h403v803h-381v197h48q155 0 245 68.5t105 191.5h241v-1260z" />
    <glyph glyph-name="two.tf" horiz-adv-x="1269" 
d="M711 225h422v-225h-1008v51q0 95 25.5 178t64 143t103 120.5t122 103.5t140.5 101q6 3 8.5 5t7 5t8.5 6q61 44 96.5 73.5t74.5 72.5t57 90.5t18 103.5q0 104 -61.5 161.5t-165.5 57.5q-114 0 -175.5 -68t-54.5 -188h-254q-7 216 131 347.5t367 131.5q216 0 347.5 -122
t131.5 -320q0 -82 -23.5 -153.5t-70 -132t-98.5 -108t-125 -100.5q-26 -19 -91.5 -64t-98.5 -70t-79.5 -64t-75 -76t-44.5 -76q150 16 301 16z" />
    <glyph glyph-name="three.tf" horiz-adv-x="1269" 
d="M627 -20q-237 0 -372.5 128.5t-133.5 344.5h258q-3 -122 65.5 -187t182.5 -65q117 0 187.5 63.5t70.5 169.5q0 102 -69 162.5t-185 60.5h-139v201h124q118 0 182 59.5t64 153.5q0 97 -64.5 150t-166.5 53q-113 0 -176 -64.5t-64 -181.5h-260q0 212 141 339.5t369 127.5
q137 0 246 -46t174 -136.5t65 -212.5q0 -111 -55 -197.5t-158 -130.5v-12q117 -40 176.5 -132t59.5 -210q0 -197 -146 -317.5t-376 -120.5z" />
    <glyph glyph-name="four.tf" horiz-adv-x="1269" 
d="M1020 514h172v-211h-172v-303h-254v303h-698v203l587 971h365v-963zM330 514h436v725z" />
    <glyph glyph-name="five.tf" horiz-adv-x="1269" 
d="M676 985q213 0 345 -139t132 -357q0 -228 -145 -368.5t-383 -140.5q-229 0 -370 132t-138 345h258q-2 -110 67.5 -181t184.5 -71q120 0 193 75.5t73 200.5q0 128 -73.5 208.5t-196.5 80.5q-84 0 -148.5 -38.5t-89.5 -98.5h-240l35 844h885v-224h-662l-16 -356l12 -4
q41 41 119 66.5t158 25.5z" />
    <glyph glyph-name="six.tf" horiz-adv-x="1269" 
d="M649 -20q-139 0 -243.5 53.5t-168.5 154t-95 237t-31 310.5q0 364 139 562t416 198q203 0 329 -103t146 -278h-256q-14 83 -76 123.5t-150 40.5q-156 0 -225.5 -126.5t-58.5 -350.5h12q45 87 130.5 131.5t195.5 44.5q201 0 327.5 -135t126.5 -355q0 -227 -141 -367
t-377 -140zM657 205q115 0 182.5 76.5t67.5 205.5q0 128 -68.5 203.5t-181.5 75.5q-118 0 -184.5 -82t-66.5 -203q0 -127 68.5 -201.5t182.5 -74.5z" />
    <glyph glyph-name="seven.tf" horiz-adv-x="1269" 
d="M92 999v478h1094v-183q-222 -287 -390 -643t-221 -651h-274q46 284 204 628.5t372 624.5h-576v-254h-209z" />
    <glyph glyph-name="eight.tf" horiz-adv-x="1269" 
d="M119 385q0 117 55 207t156 137v16q-99 45 -155 137.5t-56 207.5q0 179 142.5 291t373.5 112t373.5 -111.5t142.5 -291.5q0 -113 -56 -205.5t-155 -139.5v-16q100 -47 155.5 -138t55.5 -206q0 -182 -142.5 -293.5t-375.5 -111.5q-230 0 -372 112.5t-142 292.5zM381 1057
q0 -100 70 -157.5t182 -57.5q121 0 188.5 59t67.5 156q0 100 -69.5 157.5t-186.5 57.5q-118 0 -185 -58.5t-67 -156.5zM381 418q0 -102 70 -158.5t182 -56.5q121 0 188.5 59t67.5 156q0 100 -70.5 158.5t-185.5 58.5q-118 0 -185 -60t-67 -157z" />
    <glyph glyph-name="nine.tf" horiz-adv-x="1269" 
d="M610 -20q-195 0 -323 104.5t-148 275.5h256q13 -77 74 -120t154 -43q153 0 222.5 124.5t57.5 352.5h-12q-47 -85 -131.5 -129.5t-194.5 -44.5q-203 0 -328.5 134t-125.5 353q0 227 139.5 367.5t372.5 140.5q141 0 246 -55t170 -158.5t96.5 -243t31.5 -315.5
q0 -381 -138 -562t-419 -181zM616 711q120 0 187 81t67 203q0 125 -69.5 201t-184.5 76q-114 0 -180.5 -77t-66.5 -206t67.5 -203.5t179.5 -74.5z" />
    <glyph glyph-name="zero.tf.ss01" horiz-adv-x="1269" 
d="M637 1495q244 0 388 -195.5t144 -556.5q0 -368 -146.5 -561.5t-387.5 -193.5q-247 0 -392 195.5t-145 559.5q0 185 40 329.5t112.5 236t170 139t216.5 47.5zM635 1272q-245 0 -268 -424h532q-22 424 -264 424zM633 213q245 0 268 422h-532q13 -219 79.5 -320.5
t184.5 -101.5z" />
    <glyph glyph-name="zero.dnom" horiz-adv-x="856" 
d="M428 -8q-173 0 -265.5 133t-92.5 369q0 248 96.5 374.5t261.5 126.5q172 0 265 -132.5t93 -368.5q0 -249 -97.5 -375.5t-260.5 -126.5zM426 154q92 0 131 87t39 248q0 347 -166 347q-93 0 -132.5 -86.5t-39.5 -249.5q0 -183 43 -264.5t125 -81.5z" />
    <glyph glyph-name="one.dnom" horiz-adv-x="641" 
d="M55 664v147h92q86 0 129 45t43 119v8h173v-983h-183v664h-254z" />
    <glyph glyph-name="two.dnom" horiz-adv-x="778" 
d="M291 156l141 8h266v-164h-620v33q0 78 24.5 145t63 114.5t85.5 89.5t94 78t85.5 71.5t63 79t24.5 91.5q0 63 -37 99.5t-100 36.5q-68 0 -106 -45.5t-35 -118.5l-183 12q3 138 95 223.5t241 85.5q145 0 228.5 -81.5t83.5 -211.5q0 -68 -25.5 -128t-64 -102t-87.5 -84.5
t-94 -75.5t-85 -74.5t-58 -81.5z" />
    <glyph glyph-name="three.dnom" horiz-adv-x="776" 
d="M381 -14q-149 0 -239 85.5t-87 223.5h183q0 -69 39.5 -108.5t101.5 -39.5q63 0 103 38.5t40 97.5q0 64 -42.5 100.5t-110.5 36.5h-80v168h61q72 0 111 36t39 93q0 58 -35 88.5t-90 30.5q-66 0 -102.5 -41t-34.5 -107h-185q-3 135 84.5 221t239.5 86q141 0 227 -72
t86 -194q0 -66 -33.5 -121.5t-103.5 -89.5v-10q74 -28 115 -90t41 -144q0 -129 -92.5 -208.5t-235.5 -79.5z" />
    <glyph glyph-name="four.dnom" horiz-adv-x="782" 
d="M647 344h105v-162h-105v-182h-180v182h-434v152l332 649h282v-639zM233 344h234v459z" />
    <glyph glyph-name="five.dnom" horiz-adv-x="813" 
d="M68 303h184q0 -68 42 -110.5t109 -42.5q69 0 113.5 48t44.5 124q0 78 -45 128t-115 50q-49 0 -87.5 -23t-53.5 -63h-174v569h604v-162h-424v-127l-4 -88l4 -4q27 25 74.5 41t97.5 16q137 0 223.5 -93t86.5 -238q0 -153 -96.5 -247.5t-250.5 -94.5q-148 0 -240.5 87.5
t-92.5 229.5z" />
    <glyph glyph-name="six.dnom" horiz-adv-x="831" 
d="M66 481q0 238 95 376t275 138q130 0 216.5 -71t99.5 -191h-183q-9 47 -46.5 75t-92.5 28q-94 0 -137 -73.5t-43 -217.5h8q27 51 86 79.5t127 28.5q132 0 214.5 -90t82.5 -235q0 -151 -95.5 -245.5t-250.5 -94.5q-173 0 -264.5 129.5t-91.5 363.5zM272 324
q0 -75 42.5 -124.5t113.5 -49.5t114.5 48.5t43.5 129.5q0 79 -43 126.5t-115 47.5t-114 -51.5t-42 -126.5z" />
    <glyph glyph-name="seven.dnom" horiz-adv-x="731" 
d="M698 983v-131q-304 -374 -379 -852h-180q30 232 119 443.5t223 377.5h-299v-153h-137v315h653z" />
    <glyph glyph-name="eight.dnom" horiz-adv-x="800" 
d="M57 260q0 75 37 135t105 90v11q-68 32 -105 92t-37 135q0 125 95 198.5t251 73.5t247 -75t91 -197q0 -73 -35.5 -134.5t-101.5 -92.5v-11q137 -65 137 -227q0 -125 -93.5 -198.5t-248.5 -73.5q-157 0 -249.5 75t-92.5 199zM246 702q0 -63 42.5 -99t112.5 -36
q71 0 111.5 37.5t40.5 97.5q0 62 -42 98t-110 36q-72 0 -113.5 -37t-41.5 -97zM246 279q0 -61 42 -97.5t113 -36.5q69 0 110.5 38t41.5 96q0 64 -42 100.5t-110 36.5q-70 0 -112.5 -37.5t-42.5 -99.5z" />
    <glyph glyph-name="nine.dnom" horiz-adv-x="831" 
d="M766 502q0 -238 -95.5 -376t-275.5 -138q-131 0 -217 71t-98 191h182q9 -49 46 -74.5t95 -25.5q93 0 136 73t43 217h-11q-27 -53 -85 -82.5t-126 -29.5q-133 0 -215 92t-82 237q0 148 96 243t249 95q175 0 266.5 -129.5t91.5 -363.5zM557 659q0 76 -42 126.5t-112 50.5
q-71 0 -114 -50.5t-43 -128.5q0 -80 42.5 -127t114.5 -47q73 0 113.5 50.5t40.5 125.5z" />
    <glyph glyph-name="zero.numr" horiz-adv-x="856" 
d="M428 514q-173 0 -265.5 131.5t-92.5 364.5q0 245 96.5 370t261.5 125q172 0 265 -131t93 -364q0 -246 -97.5 -371t-260.5 -125zM426 674q47 0 80.5 23.5t53 69t28 104t8.5 135.5q0 340 -166 340q-93 0 -132.5 -85t-39.5 -245q0 -342 168 -342z" />
    <glyph glyph-name="one.numr" horiz-adv-x="641" 
d="M55 1178v145h92q87 0 129.5 44.5t42.5 117.5v8h173v-969h-183v654h-254z" />
    <glyph glyph-name="two.numr" horiz-adv-x="778" 
d="M291 676l141 8h266v-162h-620v35q0 77 24.5 143t63 112.5t85.5 88t94 77t85.5 70.5t63 78t24.5 91q0 61 -37 96t-100 35q-67 0 -105.5 -44t-35.5 -118l-183 12q3 137 94.5 222t241.5 85q145 0 228.5 -79.5t83.5 -208.5q0 -67 -25.5 -126.5t-64 -101t-87.5 -84t-94 -75
t-85 -73.5t-58 -81z" />
    <glyph glyph-name="three.numr" horiz-adv-x="776" 
d="M381 508q-148 0 -238.5 84.5t-87.5 220.5h183q0 -66 40 -105.5t101 -39.5q63 0 103 38t40 95q0 64 -43 99.5t-110 35.5h-80v166h61q73 0 111.5 35.5t38.5 93.5q0 57 -35 86t-90 29q-64 0 -101.5 -40t-35.5 -106h-185q-3 134 83.5 219.5t240.5 85.5q140 0 226.5 -71.5
t86.5 -190.5q0 -65 -32.5 -120.5t-104.5 -88.5v-10q77 -30 116.5 -90t39.5 -141q0 -125 -92.5 -205t-235.5 -80z" />
    <glyph glyph-name="four.numr" horiz-adv-x="782" 
d="M647 860h105v-158h-105v-178h-180v178h-434v150l332 641h282v-633zM233 860h234v455z" />
    <glyph glyph-name="five.numr" horiz-adv-x="813" 
d="M68 821h184q0 -65 42 -109t109 -44q69 0 113.5 48.5t44.5 123.5q0 78 -45 128t-115 50q-52 0 -89.5 -25t-51.5 -63h-174v563h604v-162h-424v-125l-4 -86l4 -4q26 26 75 42t97 16q137 0 223.5 -93t86.5 -235q0 -151 -96 -244.5t-251 -93.5q-148 0 -240.5 86.5t-92.5 226.5
z" />
    <glyph glyph-name="six.numr" horiz-adv-x="831" 
d="M66 997q0 235 95 371.5t275 136.5q129 0 216 -69.5t100 -188.5h-183q-10 48 -49 73.5t-90 25.5q-94 0 -137 -71.5t-43 -213.5h8q27 50 86.5 79t126.5 29q131 0 214 -90.5t83 -232.5q0 -148 -95.5 -242t-250.5 -94q-173 0 -264.5 128t-91.5 359zM272 842
q0 -75 42.5 -124.5t113.5 -49.5t114.5 49.5t43.5 128.5t-43 126.5t-115 47.5t-114 -51.5t-42 -126.5z" />
    <glyph glyph-name="seven.numr" horiz-adv-x="731" 
d="M698 1493v-131q-305 -366 -379 -838h-180q32 228 120 436t220 371h-297v-135h-137v297h653z" />
    <glyph glyph-name="eight.numr" horiz-adv-x="800" 
d="M57 778q0 76 37.5 134.5t104.5 91.5v10q-68 32 -105 90t-37 133q0 123 94.5 195.5t251.5 72.5t247.5 -74t90.5 -194q0 -73 -35 -131.5t-102 -91.5v-10q65 -33 101 -91t36 -135q0 -122 -94.5 -195t-247.5 -73q-155 0 -248.5 74t-93.5 194zM246 1217q0 -61 42 -97.5
t113 -36.5q70 0 111 37.5t41 96.5q0 61 -42.5 96t-109.5 35q-72 0 -113.5 -36.5t-41.5 -94.5zM246 799q0 -61 42 -97t113 -36q70 0 111 38t41 95q0 62 -42.5 98.5t-109.5 36.5q-72 0 -113.5 -37.5t-41.5 -97.5z" />
    <glyph glyph-name="nine.numr" horiz-adv-x="831" 
d="M766 1018q0 -237 -95 -372.5t-276 -135.5q-129 0 -216 70.5t-99 189.5h182q10 -50 48.5 -76t92.5 -26q93 0 136 72t43 214h-11q-27 -50 -84 -78t-127 -28q-132 0 -214.5 90t-82.5 231q0 149 95.5 242.5t249.5 93.5q174 0 266 -129t92 -358zM557 1174q0 74 -42 123
t-112 49q-71 0 -114 -49.5t-43 -125.5q0 -80 42.5 -128t114.5 -48q73 0 113.5 52.5t40.5 126.5z" />
    <glyph glyph-name="question.ss01" horiz-adv-x="1124" 
d="M78 1063q0 206 132.5 327t356.5 121q213 0 336 -106t123 -281q0 -48 -11 -93t-25 -77t-46 -75.5t-53.5 -68t-67.5 -75.5q-11 -12 -39.5 -42.5t-36.5 -39.5t-28 -32.5t-25.5 -33.5t-17.5 -29.5t-15 -33.5t-6.5 -33t-3.5 -40v-29h-245v31q0 101 50 186.5t156 200.5
q78 80 118 141t40 125q0 86 -58 135t-155 49q-109 0 -169.5 -61.5t-57.5 -165.5h-252zM391 0v270h283v-270h-283z" />
    <glyph glyph-name="questiondown.ss01" horiz-adv-x="1124" 
d="M713 1262v-271h-283v271h283zM1026 199q0 -208 -133 -328.5t-354 -120.5q-216 0 -338.5 105t-122.5 282q0 59 13 109t46 100.5t60.5 84t83.5 95.5q99 106 120 134q52 70 52 149v29h245v-31q0 -101 -50.5 -186.5t-158.5 -198.5q-77 -81 -116 -141.5t-39 -126.5
q0 -87 58 -136t155 -49q109 0 169 62.5t58 167.5h252z" />
    <glyph glyph-name="numbersign.ss03" horiz-adv-x="1251" 
d="M1169 967h-194l-90 -389h241l-34 -136h-238l-102 -442h-158l102 442h-299l-102 -442h-156l103 442h-199l39 136h190l88 389h-237l39 135h231l99 432h155l-98 -432h299l100 432h158l-100 -432h200zM727 578l90 389h-301l-88 -389h299z" />
    <glyph glyph-name="parenleft.case" horiz-adv-x="604" 
d="M119 743q0 241 89 453t238 338h146q-153 -132 -237.5 -339.5t-84.5 -449.5q0 -244 85.5 -449t236.5 -337h-146q-153 128 -240 338.5t-87 445.5z" />
    <glyph glyph-name="parenright.case" horiz-adv-x="604" 
d="M487 743q0 -240 -89 -449t-240 -335h-146q153 135 237.5 341.5t84.5 444.5q0 248 -85.5 454t-236.5 335h146q153 -127 241 -340.5t88 -450.5z" />
    <glyph glyph-name="braceleft.case" horiz-adv-x="632" 
d="M72 614v142q71 0 105 41.5t34 109.5v432q0 76 41.5 119t118.5 43h211v-127h-224v-459q0 -97 -42 -154.5t-113 -68.5v-6q70 -14 112.5 -74.5t42.5 -152.5v-479h224v-130h-211q-74 0 -117 41.5t-43 122.5v451q0 78 -39 113.5t-100 35.5z" />
    <glyph glyph-name="braceright.case" horiz-adv-x="632" 
d="M561 614q-61 0 -101 -36t-40 -113v-451q0 -81 -42 -122.5t-116 -41.5h-211v130h221v479q0 90 43 151t115 76v6q-72 11 -115 68.5t-43 154.5v459h-221v127h211q77 0 117.5 -43t40.5 -119v-432q0 -67 35 -109t106 -42v-142z" />
    <glyph glyph-name="bracketleft.case" horiz-adv-x="602" 
d="M172 -150v1674h377v-129h-234v-1415h234v-130h-377z" />
    <glyph glyph-name="bracketright.case" horiz-adv-x="602" 
d="M51 -150v130h238v1415h-238v129h379v-1674h-379z" />
    <glyph glyph-name="hyphen.case" horiz-adv-x="950" 
d="M115 682v149h719v-149h-719z" />
    <glyph glyph-name="endash.case" horiz-adv-x="1310" 
d="M115 682v149h1079v-149h-1079z" />
    <glyph glyph-name="emdash.case" horiz-adv-x="1712" 
d="M115 682v149h1480v-149h-1480z" />
    <glyph glyph-name="greater.case" horiz-adv-x="1112" 
d="M205 203v256l270 141l320 139v17l-314 133l-276 139v248l799 -434v-193z" />
    <glyph glyph-name="less.case" horiz-adv-x="1112" 
d="M907 203l-798 446v193l798 434v-248l-278 -139l-312 -133v-17l318 -139l272 -141v-256z" />
    <glyph glyph-name="percent.tf" horiz-adv-x="1241" 
d="M61 1190q0 141 88.5 232t233.5 91t234.5 -92t89.5 -235q0 -141 -90 -232.5t-234 -91.5q-140 0 -231 91t-91 237zM236 1190q0 -77 40.5 -125.5t106.5 -48.5t109 49t43 125q0 72 -43 120t-109 48q-65 0 -106 -47.5t-41 -120.5zM61 467v135l1123 447v-140zM518 309
q0 141 90 232.5t234 91.5q145 0 234 -91.5t89 -232.5q0 -143 -90.5 -236t-232.5 -93q-141 0 -232.5 91.5t-91.5 237.5zM692 309q0 -77 41.5 -124.5t108.5 -47.5q65 0 108 48t43 124q0 74 -42.5 123t-108.5 49t-108 -49t-42 -123z" />
    <glyph glyph-name="perthousand.tf" horiz-adv-x="1357" 
d="M391 895q-141 0 -232 86t-91 223t91 223t232 86q138 0 231 -86.5t93 -222.5t-93 -222.5t-231 -86.5zM391 1360q-66 0 -106.5 -43.5t-40.5 -112.5q0 -67 40 -109t107 -42t109.5 42.5t42.5 110.5t-42.5 111t-109.5 43zM1247 1126v-135l-1122 -442v137zM987 598
q136 0 221.5 -85t85.5 -222q0 -139 -85.5 -225t-223.5 -86q-73 0 -139.5 31t-110.5 87q-42 -56 -108 -87t-142 -31q-138 0 -223.5 86t-85.5 225q0 137 85 222t222 85q74 0 139.5 -32t110.5 -87q46 56 113.5 87.5t140.5 31.5zM973 137q65 0 106 44t41 114q0 66 -41.5 108.5
t-105.5 42.5q-66 0 -108 -43t-42 -112t42 -111.5t108 -42.5zM498 133q67 0 108 44t41 114q0 68 -40.5 110.5t-106.5 42.5t-108 -43t-42 -110q0 -69 41 -113.5t107 -44.5z" />
    <glyph glyph-name="uni1F310" horiz-adv-x="2068" 
d="M1034 1511q267 0 476.5 -96.5t325.5 -270.5t116 -396q0 -223 -117 -398t-326.5 -272.5t-474.5 -97.5q-266 0 -475.5 97.5t-325.5 272.5t-116 398q0 222 115 396t324 270.5t478 96.5zM1239 1178q-34 128 -87.5 199t-117.5 71q-66 0 -119.5 -71t-87.5 -199h412zM1307 1178
h213q-120 193 -328 249q70 -85 115 -249zM760 1178q45 166 114 249q-208 -56 -325 -249h211zM1726 1178q-117 135 -309 206q108 -83 176 -206h133zM649 1384q-192 -71 -309 -206h133q68 123 176 206zM371 780q6 182 67 322h-155q-92 -144 -101 -322h189zM743 1102h-233
q-64 -144 -70 -322h273q3 181 30 322zM778 780h510q-3 179 -31 322h-448q-28 -143 -31 -322zM1354 780h274q-6 181 -69 322h-236q28 -146 31 -322zM1696 780h188q-9 180 -100 322h-154q60 -145 66 -322zM184 709q9 -172 101 -316h151q-59 142 -65 316h-187zM440 709
q6 -172 70 -316h233q-27 141 -30 316h-273zM1288 709h-510q3 -173 31 -316h448q28 163 31 316zM1323 393h233q63 134 72 316h-274q-3 -170 -31 -316zM1696 709q-6 -163 -66 -316h154q89 144 98 316h-186zM338 322q113 -134 305 -209q-109 85 -172 209h-133zM760 322h-213
q119 -198 325 -254q-70 85 -112 254zM825 322q36 -131 90 -204t119 -73q64 0 117.5 73t89.5 204h-416zM1307 322q-41 -167 -115 -256q210 59 328 256h-213zM1423 113q190 71 306 209h-134q-68 -128 -172 -209z" />
    <glyph glyph-name="uni1F441" horiz-adv-x="1748" 
d="M125 745q0 168 57 311t156.5 242t238 155t297.5 56q160 0 298.5 -56t238 -155t156.5 -242t57 -311q0 -171 -57 -316t-156.5 -244t-238 -154.5t-298.5 -55.5q-159 0 -297 55.5t-238 154.5t-157 244t-57 316zM246 745q0 -192 83 -343t226 -232.5t319 -81.5q177 0 320 81.5
t226 232t83 343.5q0 191 -83 340.5t-226 230.5t-320 81q-132 0 -247.5 -47.5t-199.5 -132t-132.5 -207t-48.5 -265.5zM514 748q0 159 104 260.5t256 101.5q153 0 257 -101.5t104 -260.5q0 -166 -103 -268.5t-258 -102.5q-154 0 -257 102.5t-103 268.5zM565 723l291 14
l-186 -170l30 -35l168 193l-12 -299h41l-14 299l168 -193l32 35l-188 170l291 -14v43l-291 -12l188 170l-32 32l-168 -190l14 297h-41l12 -297l-168 190l-30 -32l186 -170l-291 12v-43z" />
    </font>
</defs>
</svg>
