<?xml version="1.0" standalone="no"?>
<!DOCTYPE svg PUBLIC "-//W3C//DTD SVG 1.1//EN" "http://www.w3.org/Graphics/SVG/1.1/DTD/svg11.dtd" >
<svg xmlns="http://www.w3.org/2000/svg" xmlns:xlink="http://www.w3.org/1999/xlink" version="1.1">
<metadata>
Created by FontForge 20170731 at Tue Nov 24 21:21:12 2020
 By Aleksey,,,
Copyright (c) 2017 by Deni Anggara. All rights reserved.
</metadata>
<defs>
<font id="AllianceNo.1-Regular" horiz-adv-x="1155" >
  <font-face 
    font-family="Alliance No1"
    font-weight="400"
    font-stretch="normal"
    units-per-em="2048"
    panose-1="0 0 5 0 0 0 0 0 0 0"
    ascent="1638"
    descent="-410"
    x-height="1069"
    cap-height="1493"
    bbox="-119 -440 1942 1960"
    underline-thickness="102"
    underline-position="-816"
    unicode-range="U+000D-FB03"
  />
<missing-glyph horiz-adv-x="748" 
d="M68 0v1365h544v-1365h-544zM136 68h408v1229h-408v-1229z" />
    <glyph glyph-name="uniFB01" unicode="fi" horiz-adv-x="1218" 
d="M29 922v147h192v141q0 152 83 227.5t231 75.5q66 0 120 -14v-145q-46 10 -96 10q-87 0 -124.5 -43t-37.5 -129v-123h643v-1069h-176v922h-467v-922h-176v922h-192zM862 1249v234h178v-234h-178z" />
    <glyph glyph-name="uniFB02" unicode="fl" horiz-adv-x="1245" 
d="M29 922v147h192v141q0 152 83 227.5t231 75.5q66 0 120 -14v-145q-46 10 -96 10q-87 0 -125.5 -43t-38.5 -129v-123h496v432h176v-1501h-176v922h-496v-922h-174v922h-192z" />
    <glyph glyph-name=".notdef" horiz-adv-x="748" 
d="M68 0v1365h544v-1365h-544zM136 68h408v1229h-408v-1229z" />
    <glyph glyph-name="glyph1" horiz-adv-x="0" 
 />
    <glyph glyph-name="glyph2" horiz-adv-x="682" 
 />
    <glyph glyph-name="uni000D" unicode="&#xd;" horiz-adv-x="489" 
 />
    <glyph glyph-name="space" unicode=" " horiz-adv-x="477" 
 />
    <glyph glyph-name="exclam" unicode="!" horiz-adv-x="573" 
d="M184 0v186h203v-186h-203zM199 1069v424h178v-424l-47 -620h-84z" />
    <glyph glyph-name="quotedbl" unicode="&#x22;" horiz-adv-x="724" 
d="M115 1225v268h168v-268l-47 -330h-74zM444 1225v268h168v-268l-45 -330h-75z" />
    <glyph glyph-name="numbersign" unicode="#" horiz-adv-x="1474" 
d="M129 440v119h240v426h-240v117h240v434h127v-434h489v434h123v-434h240v-117h-240v-426h240v-119h-240v-440h-123v440h-489v-440h-127v440h-240zM496 559h489v426h-489v-426z" />
    <glyph glyph-name="dollar" unicode="$" horiz-adv-x="1130" 
d="M94 506h178q0 -126 75.5 -193t213.5 -67q131 0 202 57t71 156q0 81 -52 128t-149 72l-182 46q-322 78 -322 339q0 142 95.5 238t260.5 111v186h138v-186q163 -19 260 -114.5t98 -252.5h-176q-2 105 -70.5 168t-189.5 63q-111 0 -172.5 -53.5t-61.5 -144.5
q0 -81 54.5 -126.5t160.5 -72.5l179 -45q313 -77 313 -340q0 -157 -106 -255.5t-289 -113.5v-184h-138v187q-185 19 -288 125.5t-103 271.5z" />
    <glyph glyph-name="percent" unicode="%" horiz-adv-x="1839" 
d="M121 1141q0 164 99.5 266t260.5 102q163 0 263 -102t100 -268t-100.5 -269.5t-262.5 -103.5q-160 0 -260 104t-100 271zM266 1141q0 -109 60 -178.5t155 -69.5q96 0 156.5 69.5t60.5 178.5q0 108 -60 175.5t-157 67.5q-95 0 -155 -68t-60 -175zM387 0l944 1493h150
l-946 -1493h-148zM993 354q0 164 100.5 267.5t262.5 103.5t260 -103.5t98 -269.5t-98.5 -269t-259.5 -103q-162 0 -262.5 103.5t-100.5 270.5zM1139 354q0 -110 60.5 -179t156.5 -69q95 0 155 69t60 179q0 108 -60 177t-155 69q-96 0 -156.5 -69.5t-60.5 -176.5z" />
    <glyph glyph-name="ampersand" unicode="&#x26;" horiz-adv-x="1437" 
d="M100 365q0 130 79 235t247 203v16q-120 116 -165.5 192.5t-45.5 168.5q0 149 101.5 239t271.5 90q163 0 260.5 -87t97.5 -232q0 -104 -62 -194.5t-210 -190.5v-19l352 -385q76 169 102 347l158 -39q-19 -107 -60.5 -222t-92.5 -200l264 -287h-219l-150 164
q-83 -92 -205 -138t-260 -46q-207 0 -335 104.5t-128 280.5zM279 381q0 -118 81 -185t218 -67q109 0 202 39t148 104l-398 437q-251 -137 -251 -328zM385 1182q0 -68 36.5 -133t131.5 -152h18q115 84 161 153.5t46 137.5q0 82 -53 131t-141 49q-90 0 -144.5 -51t-54.5 -135z
" />
    <glyph glyph-name="quotesingle" unicode="'" horiz-adv-x="395" 
d="M115 1225v268h168v-268l-47 -330h-74z" />
    <glyph glyph-name="parenleft" unicode="(" horiz-adv-x="825" 
d="M168 653q0 276 127.5 530.5t337.5 391.5h129q-209 -135 -337 -389t-128 -533t128 -533.5t337 -389.5h-129q-210 135 -337.5 388.5t-127.5 534.5z" />
    <glyph glyph-name="parenright" unicode=")" horiz-adv-x="819" 
d="M66 -270q207 135 334.5 390t127.5 533q0 279 -127.5 533t-334.5 389h129q209 -138 336.5 -392t127.5 -530q0 -282 -127 -535t-337 -388h-129z" />
    <glyph glyph-name="asterisk" unicode="*" horiz-adv-x="710" 
d="M80 1092l221 102l-221 106l53 89l197 -144l-25 248h98l-20 -250l197 146l51 -89l-221 -106l221 -102l-51 -86l-197 143l20 -250h-98l25 250l-197 -143z" />
    <glyph glyph-name="plus" unicode="+" horiz-adv-x="1318" 
d="M174 588v149h406v420h157v-420h406v-149h-406v-441h-157v441h-406z" />
    <glyph glyph-name="comma" unicode="," horiz-adv-x="415" 
d="M84 -193q45 0 75 12.5t44 35t19 45t5 51.5v49h-125v248h230v-301q0 -104 -68 -165t-180 -61v86z" />
    <glyph glyph-name="hyphen" unicode="-" horiz-adv-x="944" 
d="M125 555v121h694v-121h-694z" />
    <glyph glyph-name="period" unicode="." horiz-adv-x="503" 
d="M137 0v258h230v-258h-230z" />
    <glyph glyph-name="slash" unicode="/" horiz-adv-x="841" 
d="M59 0l594 1493h131l-596 -1493h-129z" />
    <glyph glyph-name="zero" unicode="0" horiz-adv-x="1282" 
d="M133 743q0 190 38.5 335.5t108 235.5t161 135.5t202.5 45.5q109 0 200 -45.5t160 -136t107.5 -236t38.5 -334.5q0 -190 -38.5 -336.5t-108 -237t-160 -136t-199.5 -45.5q-111 0 -202.5 45.5t-161 136t-108 237t-38.5 336.5zM319 745q0 -293 80.5 -445.5t239.5 -152.5
q162 0 242 154t80 440q0 295 -81 445.5t-239 150.5q-163 0 -242.5 -152.5t-79.5 -439.5zM547 659v164h178v-164h-178z" />
    <glyph glyph-name="one" unicode="1" horiz-adv-x="946" 
d="M102 1085v136h45q149 0 242.5 67.5t112.5 188.5h164v-1477h-177v1085h-387z" />
    <glyph glyph-name="two" unicode="2" horiz-adv-x="1177" 
d="M123 0v51q0 107 31 194t107 166t126 120t162 120q12 9 19 14t18 13t20 14q62 45 103 79.5t81.5 81.5t60 101t19.5 117q0 126 -73.5 195t-198.5 69q-138 0 -212.5 -80t-66.5 -215h-178q-7 203 123 329t344 126q202 0 325.5 -117t123.5 -303q0 -83 -25 -155.5t-74.5 -134
t-100 -107t-124.5 -100.5q-24 -17 -78.5 -55.5t-81.5 -58.5t-72 -55t-70 -61.5t-53 -60.5t-43.5 -68.5t-21.5 -71.5q140 13 289 13h473v-160h-952z" />
    <glyph glyph-name="three" unicode="3" horiz-adv-x="1216" 
d="M129 449h186q-6 -154 72.5 -233t210.5 -79q135 0 218 76.5t83 200.5q0 126 -84 199t-227 73h-105v152h101q142 0 217.5 72.5t75.5 185.5q0 115 -76.5 177t-194.5 62q-134 0 -207 -79.5t-73 -225.5h-185q-4 209 127.5 337t339.5 128q125 0 227 -43.5t165 -133.5t63 -212
q0 -112 -54.5 -198t-166.5 -134v-14q125 -42 185 -137t60 -213q0 -192 -137 -311t-352 -119q-221 0 -348 128.5t-121 340.5z" />
    <glyph glyph-name="four" unicode="4" horiz-adv-x="1247" 
d="M76 319v156l629 1002h272v-1004h182v-154h-182v-319h-178v319h-723zM262 473h537v862z" />
    <glyph glyph-name="five" unicode="5" horiz-adv-x="1236" 
d="M127 451h182q-3 -135 78.5 -223.5t218.5 -88.5q139 0 225.5 91.5t86.5 244.5t-86.5 249.5t-229.5 96.5q-93 0 -170.5 -43t-105.5 -108h-168l30 807h846v-158h-688l-22 -455l8 -2q45 51 129.5 82t173.5 31q205 0 338 -139t133 -355q0 -221 -140.5 -361t-361.5 -140
q-213 0 -346.5 129.5t-130.5 341.5z" />
    <glyph glyph-name="six" unicode="6" horiz-adv-x="1251" 
d="M139 737q0 137 17.5 250.5t57 209t100 160.5t149 101.5t201.5 36.5q193 0 313 -100t137 -273h-184q-14 111 -88 164t-180 53q-359 0 -332 -591h10q49 106 140.5 158t209.5 52q197 0 322 -133.5t125 -351.5q0 -220 -133 -356.5t-355 -136.5q-112 0 -199 37.5t-145 104
t-96 163t-54 207.5t-16 245zM360 469q0 -149 81.5 -239.5t215.5 -90.5q133 0 212 91t79 245t-80.5 242t-210.5 88q-140 0 -218.5 -98t-78.5 -238z" />
    <glyph glyph-name="seven" unicode="7" horiz-adv-x="1120" 
d="M76 1049v428h971v-125q-207 -290 -366.5 -656.5t-219.5 -695.5h-193q55 311 207.5 668t353.5 651h-600v-270h-153z" />
    <glyph glyph-name="eight" unicode="8" horiz-adv-x="1206" 
d="M117 379q0 115 57 207t160 143v16q-100 45 -158.5 140t-58.5 209q0 174 135 286.5t350 112.5q216 0 350.5 -111t134.5 -286q0 -115 -57.5 -209.5t-157.5 -141.5v-16q103 -50 159 -143t56 -207q0 -178 -133.5 -288.5t-351.5 -110.5q-217 0 -351 111.5t-134 287.5zM303 401
q0 -125 82.5 -194.5t216.5 -69.5q142 0 221.5 72.5t79.5 191.5q0 121 -83 192t-218 71q-139 0 -219 -73t-80 -190zM303 1073q0 -122 83 -192t216 -70q140 0 220.5 72t80.5 190q0 122 -82 192t-219 70q-139 0 -219 -71.5t-80 -190.5z" />
    <glyph glyph-name="nine" unicode="9" horiz-adv-x="1249" 
d="M121 1001q0 221 131.5 357.5t353.5 136.5q111 0 198 -38.5t145.5 -106t96 -165.5t54 -211.5t16.5 -250.5q0 -394 -129.5 -568.5t-392.5 -174.5q-184 0 -305.5 101.5t-138.5 268.5h182q12 -100 84.5 -156.5t185.5 -56.5q182 0 261.5 152t64.5 438h-10
q-52 -103 -142.5 -156t-210.5 -53q-197 0 -320.5 133t-123.5 350zM307 999q0 -154 79.5 -240.5t209.5 -86.5q142 0 221.5 97.5t79.5 238.5q0 147 -82.5 237t-218.5 90q-132 0 -210.5 -90.5t-78.5 -245.5z" />
    <glyph glyph-name="colon" unicode=":" horiz-adv-x="559" 
d="M172 0v229h231v-229h-231zM172 838v231h231v-231h-231z" />
    <glyph glyph-name="semicolon" unicode=";" horiz-adv-x="495" 
d="M88 -176q84 0 112.5 35t28.5 94v47h-123v229h230v-274q0 -101 -66.5 -156t-181.5 -55v80zM106 838v231h230v-231h-230z" />
    <glyph glyph-name="less" unicode="&#x3c;" horiz-adv-x="1134" 
d="M170 528v140l784 428v-197l-612 -297v-14l324 -166l288 -156v-194z" />
    <glyph glyph-name="equal" unicode="=" horiz-adv-x="1124" 
d="M180 315v164h764v-164h-764zM180 735v166h764v-166h-764z" />
    <glyph glyph-name="greater" unicode="&#x3e;" horiz-adv-x="1134" 
d="M180 72v194l289 156l326 166v14l-615 297v197l787 -428v-140z" />
    <glyph glyph-name="question" unicode="?" horiz-adv-x="1126" 
d="M98 1075q0 198 127.5 317t339.5 119q200 0 318 -105t118 -278q0 -75 -26 -140.5t-63 -113t-105 -118.5q-18 -19 -50.5 -51t-46 -46.5t-36 -40t-31.5 -43t-20 -42.5t-15 -51t-4 -58v-39h-176v39q0 32 3.5 61t14.5 58t18.5 49.5t27.5 49t28.5 42t36 42.5t35 37.5t39.5 40
t37 36.5q78 78 116.5 145t38.5 139q0 108 -72.5 170t-193.5 62q-134 0 -209.5 -76.5t-75.5 -204.5h-174zM403 0v225h232v-225h-232z" />
    <glyph glyph-name="at" unicode="@" horiz-adv-x="1875" 
d="M102 641q0 257 106.5 455t300.5 306.5t445 108.5q174 0 322 -55.5t252 -154t162.5 -241t58.5 -310.5q0 -239 -107.5 -388t-283.5 -149q-93 0 -150 45.5t-75 122.5h-13q-38 -83 -106 -123.5t-148 -40.5q-132 0 -221.5 102t-89.5 289q0 196 97 322.5t247 126.5
q74 0 134.5 -34.5t92.5 -96.5h11l20 106h113l-37 -522q-7 -93 28.5 -133.5t94.5 -40.5q113 0 181.5 112t68.5 293q0 292 -179.5 466.5t-476.5 174.5q-215 0 -374 -94t-240.5 -259.5t-81.5 -381.5q0 -157 45.5 -289.5t132 -230t219.5 -152.5t299 -55q264 0 490 109v-133
q-209 -103 -492 -103q-188 0 -345.5 60.5t-267.5 170.5t-171.5 268.5t-61.5 348.5zM696 610q0 -129 49 -197.5t138 -68.5q108 0 169.5 89t61.5 229q0 126 -51.5 199t-142.5 73q-105 0 -164.5 -89t-59.5 -235z" />
    <glyph glyph-name="A" unicode="A" horiz-adv-x="1361" 
d="M8 0l563 1493h213l568 -1493h-201l-131 352h-686l-131 -352h-195zM391 506h572l-95 256l-184 543h-10l-189 -543z" />
    <glyph glyph-name="B" unicode="B" horiz-adv-x="1454" 
d="M207 0v1493h665q204 0 320.5 -104.5t116.5 -274.5q0 -118 -56 -206.5t-159 -129.5v-16q123 -39 187.5 -133t64.5 -221q0 -187 -128.5 -297.5t-347.5 -110.5h-663zM391 160h461q149 0 224 71t75 193q0 128 -80.5 194t-218.5 66h-461v-524zM391 842h453q131 0 202.5 65
t71.5 180q0 116 -74.5 182t-199.5 66h-453v-493z" />
    <glyph glyph-name="C" unicode="C" horiz-adv-x="1538" 
d="M92 745q0 343 192.5 554.5t506.5 211.5q258 0 433 -137t212 -368h-191q-38 158 -159.5 247.5t-294.5 89.5q-230 0 -366 -163t-136 -435q0 -274 135 -436t364 -162q186 0 304 92t153 250h191q-31 -232 -207.5 -370.5t-437.5 -138.5q-208 0 -367 95.5t-245.5 269.5
t-86.5 400z" />
    <glyph glyph-name="D" unicode="D" horiz-adv-x="1529" 
d="M207 0v1493h567q209 0 360 -95t227.5 -262.5t76.5 -390.5t-76.5 -390t-228 -261t-359.5 -94h-567zM393 170h371q224 0 350.5 154.5t126.5 423.5q0 277 -128.5 426t-348.5 149h-371v-1153z" />
    <glyph glyph-name="E" unicode="E" horiz-adv-x="1320" 
d="M207 0v1493h993v-170h-807v-473h707v-162h-707v-518h807v-170h-993z" />
    <glyph glyph-name="F" unicode="F" horiz-adv-x="1251" 
d="M207 0v1493h977v-170h-791v-571h709v-162h-709v-590h-186z" />
    <glyph glyph-name="G" unicode="G" horiz-adv-x="1583" 
d="M92 743q0 228 88.5 402.5t250 270t372.5 95.5q259 0 439 -140.5t214 -369.5h-201q-30 158 -153.5 248t-300.5 90q-236 0 -375 -161t-139 -433q0 -273 137.5 -435.5t378.5 -162.5q212 0 348.5 127t142.5 336h-442v170h639v-100q0 -314 -191 -507t-499 -193
q-320 0 -514.5 210t-194.5 553z" />
    <glyph glyph-name="H" unicode="H" horiz-adv-x="1642" 
d="M207 0v1493h186v-649h856v649h185v-1493h-185v684h-856v-684h-186z" />
    <glyph glyph-name="I" unicode="I" horiz-adv-x="600" 
d="M207 0v1493h186v-1493h-186z" />
    <glyph glyph-name="J" unicode="J" horiz-adv-x="804" 
d="M33 0v166q49 -12 155 -12q234 0 234 260v1079h186v-1090q0 -94 -21.5 -167t-57.5 -120t-88.5 -77t-110 -42.5t-125.5 -12.5q-118 0 -172 16z" />
    <glyph glyph-name="K" unicode="K" horiz-adv-x="1374" 
d="M207 0v1493h186v-889l733 889h220l-543 -651l563 -842h-219l-467 694l-287 -344v-350h-186z" />
    <glyph glyph-name="L" unicode="L" horiz-adv-x="1167" 
d="M207 0v1493h186v-1321h701v-172h-887z" />
    <glyph glyph-name="M" unicode="M" horiz-adv-x="1863" 
d="M207 0v1493h250l469 -1079h12l471 1079h248v-1493h-182v809l16 438h-12l-547 -1220l-545 1220h-14l18 -440v-807h-184z" />
    <glyph glyph-name="N" unicode="N" horiz-adv-x="1619" 
d="M207 0v1493h231l793 -1260h10l-14 453v807h184v-1493h-231l-791 1260h-8l12 -435v-825h-186z" />
    <glyph glyph-name="O" unicode="O" horiz-adv-x="1579" 
d="M92 745q0 228 86.5 402t244.5 269t365 95q210 0 369 -95.5t244.5 -268.5t85.5 -399q0 -348 -191.5 -558t-507.5 -210q-211 0 -369.5 96.5t-242.5 269.5t-84 399zM289 748q0 -273 135.5 -434.5t363.5 -161.5q232 0 368 162t136 431q0 271 -137.5 434.5t-366.5 163.5
q-228 0 -363.5 -162t-135.5 -433z" />
    <glyph glyph-name="P" unicode="P" horiz-adv-x="1382" 
d="M207 0v1493h602q239 0 376.5 -130.5t137.5 -344.5q0 -218 -141 -348q-139 -128 -366 -127h-7l-416 2v-545h-186zM393 709h393q168 0 254 81.5t86 227.5q0 61 -15.5 109.5t-39 79.5t-58 54t-64 34t-66 17.5t-56 7.5t-41.5 1h-393v-612z" />
    <glyph glyph-name="Q" unicode="Q" horiz-adv-x="1579" 
d="M92 745q0 228 86.5 402t244.5 269t365 95q210 0 369 -95.5t244.5 -268.5t85.5 -399q0 -297 -142 -496.5t-387 -253.5q54 -94 153.5 -145.5t240.5 -51.5q63 0 96 6v-165q-33 -4 -82 -4q-222 0 -362 92t-195 250h-21q-211 0 -369.5 96.5t-242.5 269.5t-84 399zM289 748
q0 -273 135.5 -434.5t363.5 -161.5q232 0 368 162t136 431q0 271 -137.5 434.5t-366.5 163.5q-228 0 -363.5 -162t-135.5 -433z" />
    <glyph glyph-name="R" unicode="R" horiz-adv-x="1435" 
d="M207 0v1493h618q233 0 364.5 -124t131.5 -331q0 -152 -76.5 -259t-208.5 -152v-17q43 -17 75 -61.5t67 -130.5l170 -418h-209l-162 422q-22 54 -45 87t-54 49t-61 21t-78 5h-350v-584h-182zM389 741h424q157 0 235 79.5t78 213.5q0 143 -84 216t-229 73h-424v-582z" />
    <glyph glyph-name="S" unicode="S" horiz-adv-x="1378" 
d="M98 461h193q12 -330 395 -330q175 0 273 75.5t98 201.5q0 53 -19 95t-43 65.5t-62 42t-59.5 25t-52.5 13.5l-272 60q-39 8 -66 14.5t-74 22t-80.5 33.5t-73 49t-64 67.5t-41.5 89.5t-17 115q0 187 146.5 300t386.5 113q252 0 391.5 -116.5t144.5 -315.5h-190
q-9 140 -103 210.5t-256 70.5q-154 0 -239.5 -65t-85.5 -175q0 -50 19.5 -89.5t45.5 -62.5t67 -41.5t68.5 -26t65.5 -15.5l272 -58q387 -82 387 -407q0 -209 -153 -325.5t-412 -116.5q-284 0 -434.5 131t-155.5 350z" />
    <glyph glyph-name="T" unicode="T" horiz-adv-x="1136" 
d="M10 1323v170h1114v-170h-462v-1323h-185v1323h-467z" />
    <glyph glyph-name="U" unicode="U" horiz-adv-x="1589" 
d="M195 553v940h186v-924q0 -197 111.5 -307t302.5 -110q190 0 302.5 110t112.5 307v924h185v-940q0 -262 -161.5 -417.5t-438.5 -155.5q-283 0 -441.5 155.5t-158.5 417.5z" />
    <glyph glyph-name="V" unicode="V" horiz-adv-x="1341" 
d="M14 1493h203l250 -717l197 -608h12l198 608l254 717h199l-536 -1493h-240z" />
    <glyph glyph-name="W" unicode="W" horiz-adv-x="1898" 
d="M25 1493h196l174 -889l68 -399h14l346 1288h252l348 -1288h13l67 397l172 891h199l-305 -1493h-258l-357 1290h-10l-356 -1290h-260z" />
    <glyph glyph-name="X" unicode="X" horiz-adv-x="1261" 
d="M29 0l475 756l-459 737h213l195 -313l180 -312h12l197 326l182 299h213l-469 -745l469 -748h-215l-178 281l-203 337h-12l-217 -354l-170 -264h-213z" />
    <glyph glyph-name="Y" unicode="Y" horiz-adv-x="1325" 
d="M12 1493h226l231 -387l188 -326h15l190 328l230 385h223l-561 -889v-604h-185v604z" />
    <glyph glyph-name="Z" unicode="Z" horiz-adv-x="1177" 
d="M37 0v150l862 1173h-862v170h1102v-150l-863 -1171h854v-172h-1093z" />
    <glyph glyph-name="bracketleft" unicode="[" horiz-adv-x="647" 
d="M233 -440v2039h361v-112h-236v-1817h236v-110h-361z" />
    <glyph glyph-name="backslash" unicode="\" horiz-adv-x="847" 
d="M59 1493h129l596 -1493h-131z" />
    <glyph glyph-name="bracketright" unicode="]" horiz-adv-x="647" 
d="M51 -330h236v1817h-236v112h363v-2039h-363v110z" />
    <glyph glyph-name="asciicircum" unicode="^" horiz-adv-x="749" 
d="M31 971l278 522h133l277 -522h-156l-188 362l-189 -362h-155z" />
    <glyph glyph-name="underscore" unicode="_" horiz-adv-x="694" 
d="M-4 0h702v-143h-702v143z" />
    <glyph glyph-name="grave" unicode="`" horiz-adv-x="890" 
d="M203 1702l84 141l362 -272l-57 -90z" />
    <glyph glyph-name="a" unicode="a" 
d="M96 305q0 159 114.5 245.5t309.5 86.5h299v82q0 229 -256 229q-118 0 -184 -53.5t-68 -146.5h-174q9 158 128.5 250t314.5 92q201 0 308 -100.5t107 -284.5v-705h-159l-15 180h-12q-38 -96 -130 -148t-218 -52q-167 0 -266 88t-99 237zM279 313q0 -90 57.5 -138
t161.5 -48q143 0 232 89.5t89 234.5v55h-278q-132 0 -197 -50.5t-65 -142.5z" />
    <glyph glyph-name="b" unicode="b" horiz-adv-x="1286" 
d="M178 0v1501h178v-637h13q40 101 141.5 163.5t230.5 62.5q200 0 326.5 -152.5t126.5 -402.5t-126.5 -402.5t-336.5 -152.5q-126 0 -224.5 55t-137.5 151h-13l-16 -186h-162zM356 461q0 -141 95.5 -233.5t234.5 -92.5q67 0 124.5 23.5t104 70t73 125t26.5 181.5
q0 104 -27 182.5t-73.5 124t-103 68t-122.5 22.5q-146 0 -239 -93t-93 -241v-137z" />
    <glyph glyph-name="c" unicode="c" 
d="M90 532q0 252 140.5 405t377.5 153q188 0 314 -101.5t143 -267.5h-180q-22 104 -99 157.5t-184 53.5q-159 0 -244.5 -109.5t-85.5 -292.5q0 -189 88 -292t240 -103q119 0 198 63.5t91 166.5h182q-17 -173 -146.5 -279t-324.5 -106q-232 0 -371 150.5t-139 401.5z" />
    <glyph glyph-name="d" unicode="d" horiz-adv-x="1286" 
d="M90 526q0 256 127 410t334 154q132 0 229 -63.5t140 -166.5h10v641h178v-1501h-160l-18 186h-10q-43 -95 -143 -150.5t-228 -55.5q-210 0 -334.5 148t-124.5 398zM272 524q0 -187 86.5 -288t235.5 -101q146 0 241 93.5t95 232.5v137q0 150 -94.5 242t-237.5 92
q-156 0 -241 -109t-85 -299z" />
    <glyph glyph-name="e" unicode="e" horiz-adv-x="1165" 
d="M90 532q0 253 138.5 405.5t365.5 152.5q223 0 348 -131t125 -351q0 -64 -6 -110h-791v-11q0 -169 86 -264q89 -98 244 -98q118 0 197 54.5t100 142.5h178q-28 -154 -158.5 -248t-320.5 -94q-227 0 -366.5 150t-139.5 402zM272 629h619q0 152 -78 233.5t-221 81.5
q-140 0 -228 -86.5t-92 -228.5z" />
    <glyph glyph-name="f" unicode="f" horiz-adv-x="681" 
d="M29 922v147h192v141q0 152 83 227.5t231 75.5q66 0 120 -14v-145q-46 10 -96 10q-86 0 -123 -42.5t-37 -129.5v-123h256v-147h-256v-922h-178v922h-192z" />
    <glyph glyph-name="g" unicode="g" horiz-adv-x="1271" 
d="M90 559q0 231 128.5 381t332.5 150q125 0 221 -57t137 -156h15l10 192h160v-993q0 -208 -132.5 -323t-361.5 -115q-200 0 -322.5 86t-134.5 225h172q7 -83 84 -130.5t201 -47.5q157 0 237.5 77.5t80.5 212.5v183h-15q-41 -98 -139 -157.5t-219 -59.5q-199 0 -327 148.5
t-128 383.5zM276 555q0 -93 26 -166.5t70.5 -118t100 -67.5t117.5 -23q140 0 234 92t94 232v102q0 138 -95 232t-231 94q-62 0 -118 -23t-100.5 -67.5t-71 -118.5t-26.5 -168z" />
    <glyph glyph-name="h" unicode="h" horiz-adv-x="1263" 
d="M178 0v1501h178v-627h13q49 101 145 158.5t215 57.5q174 0 272.5 -116t98.5 -315v-659h-176v641q0 291 -254 291q-141 0 -227.5 -100.5t-86.5 -266.5v-565h-178z" />
    <glyph glyph-name="i" unicode="i" horiz-adv-x="532" 
d="M178 0v1069h176v-1069h-176zM178 1249v234h176v-234h-176z" />
    <glyph glyph-name="j" unicode="j" horiz-adv-x="542" 
d="M-35 -193q18 -6 62 -6q85 0 124 46t39 120v1102h175v-1120q0 -144 -80 -223.5t-215 -79.5q-57 0 -105 10v151zM190 1249v234h175v-234h-175z" />
    <glyph glyph-name="k" unicode="k" horiz-adv-x="1138" 
d="M178 0v1501h178v-940l494 508h227l-411 -418l432 -651h-203l-352 528l-187 -188v-340h-178z" />
    <glyph glyph-name="l" unicode="l" horiz-adv-x="532" 
d="M178 0v1501h176v-1501h-176z" />
    <glyph glyph-name="m" unicode="m" horiz-adv-x="1898" 
d="M178 0v1069h154l22 -199h17q102 220 329 220q113 0 195 -64.5t119 -169.5h16q46 114 140 174t210 60q167 0 262 -116t95 -317v-657h-178v639q0 293 -234 293q-139 0 -208.5 -99t-69.5 -266v-567h-177v641q0 291 -231 291q-130 0 -206.5 -100.5t-76.5 -262.5v-569h-178z
" />
    <glyph glyph-name="n" unicode="n" horiz-adv-x="1265" 
d="M178 0v1069h156l22 -199h15q50 103 145 161.5t215 58.5q174 0 272.5 -117t98.5 -316v-657h-178v639q0 293 -252 293q-141 0 -228.5 -103t-87.5 -270v-559h-178z" />
    <glyph glyph-name="o" unicode="o" horiz-adv-x="1208" 
d="M90 530q0 248 142.5 404t373.5 156q229 0 369.5 -154.5t140.5 -403.5q0 -247 -140 -399.5t-370 -152.5q-232 0 -374 152t-142 398zM272 535q0 -182 87.5 -290t244.5 -108q152 0 241 106.5t89 293.5q0 180 -86.5 287.5t-243.5 107.5q-152 0 -242 -106t-90 -291z" />
    <glyph glyph-name="p" unicode="p" horiz-adv-x="1288" 
d="M178 -342v1411h162l16 -192h13q41 96 139 154.5t229 58.5q210 0 334.5 -149t124.5 -400q0 -257 -127 -409t-336 -152q-129 0 -226.5 59t-137.5 160h-13v-541h-178zM356 465q0 -145 94 -237.5t238 -92.5q155 0 240.5 110.5t85.5 295.5q0 188 -87 289.5t-235 101.5
q-145 0 -240.5 -95t-95.5 -235v-137z" />
    <glyph glyph-name="q" unicode="q" horiz-adv-x="1286" 
d="M90 535q0 249 126.5 402t336.5 153q129 0 226.5 -57.5t140.5 -155.5h10l18 192h160v-1411h-178v541h-10q-43 -99 -144 -159t-229 -60q-204 0 -330.5 151.5t-126.5 403.5zM272 535q0 -198 92 -299t234 -101q144 0 238 92.5t94 237.5v137q0 141 -96.5 235.5t-237.5 94.5
q-66 0 -122.5 -22.5t-102.5 -68.5t-72.5 -124.5t-26.5 -181.5z" />
    <glyph glyph-name="r" unicode="r" horiz-adv-x="741" 
d="M178 0v1069h156l22 -217h13q45 117 134.5 175t211.5 58v-159q-179 -3 -269 -113t-90 -319v-494h-178z" />
    <glyph glyph-name="s" unicode="s" horiz-adv-x="1046" 
d="M92 324h170q2 -94 73 -149.5t193 -55.5q114 0 178 47.5t64 130.5q0 121 -143 147l-228 43q-286 54 -286 283q0 150 109.5 235t293.5 85q191 0 299.5 -89t110.5 -237h-170q-9 188 -238 188q-108 0 -167.5 -44.5t-59.5 -119.5q0 -35 13.5 -62t30 -42t45 -26.5t43.5 -14.5
l40 -8l211 -39q280 -48 280 -297q0 -146 -116.5 -232.5t-309.5 -86.5q-202 0 -319 94.5t-117 249.5z" />
    <glyph glyph-name="t" unicode="t" horiz-adv-x="692" 
d="M27 922v147h184v324l176 67v-391h240v-147h-240v-617q0 -27 2 -47t11 -44.5t24 -40t44 -26t69 -10.5q55 0 90 13v-150q-60 -16 -133 -16q-283 0 -283 305v633h-184z" />
    <glyph glyph-name="u" unicode="u" horiz-adv-x="1234" 
d="M164 387v682h176v-657q0 -138 61.5 -207.5t176.5 -69.5q145 0 231 103t86 272v559h178v-1069h-151l-25 199h-16q-43 -100 -140 -159.5t-223 -59.5q-166 0 -260 106t-94 301z" />
    <glyph glyph-name="v" unicode="v" horiz-adv-x="978" 
d="M0 1069h195l188 -569l102 -318h13l100 318l188 569h193l-381 -1069h-211z" />
    <glyph glyph-name="w" unicode="w" horiz-adv-x="1523" 
d="M20 1069h193l149 -567l70 -326h14l209 893h215l220 -889h10l69 316l148 573h186l-299 -1069h-231l-137 549l-70 303h-12l-66 -303l-131 -549h-235z" />
    <glyph glyph-name="x" unicode="x" horiz-adv-x="960" 
d="M4 0l373 539l-354 530h194l262 -407h15l256 407h194l-348 -526l365 -543h-197l-275 416h-12l-282 -416h-191z" />
    <glyph glyph-name="y" unicode="y" horiz-adv-x="958" 
d="M-2 1069h195l184 -518l108 -330h13l102 330l170 518h191l-386 -1085q-18 -51 -37.5 -93t-54.5 -91.5t-76.5 -83t-104 -56t-136.5 -22.5q-53 0 -94 10v151q33 -6 80 -6q163 0 229 174l22 62z" />
    <glyph glyph-name="z" unicode="z" horiz-adv-x="962" 
d="M78 922v147h799v-137l-586 -785h594v-147h-805v133l586 789h-588z" />
    <glyph glyph-name="braceleft" unicode="{" horiz-adv-x="602" 
d="M59 526v127q71 0 103.5 42t32.5 110v655q0 67 36 103t101 36h219v-112h-227v-678q0 -95 -43.5 -151t-106.5 -62v-6q64 -9 107 -68t43 -151v-701h227v-110h-219q-64 0 -100.5 33.5t-36.5 105.5v678q0 78 -38 113.5t-98 35.5z" />
    <glyph glyph-name="bar" unicode="|" horiz-adv-x="626" 
d="M231 -68v1610h162v-1610h-162z" />
    <glyph glyph-name="braceright" unicode="}" horiz-adv-x="602" 
d="M51 -330h228v701q0 92 42.5 151t106.5 68v6q-63 6 -106 62t-43 151v678h-228v112h217q66 0 102 -36t36 -103v-655q0 -68 33.5 -110t103.5 -42v-127q-60 0 -98.5 -35.5t-38.5 -113.5v-678q0 -139 -138 -139h-217v110z" />
    <glyph glyph-name="asciitilde" unicode="~" horiz-adv-x="755" 
d="M37 578q-6 74 8 127.5t42 79.5t57.5 37.5t62.5 11.5q50 0 108.5 -25t113 -50.5t93.5 -25.5q49 0 70.5 31.5t21.5 95.5h103q6 -76 -10 -131t-47 -82.5t-64 -40t-70 -12.5q-55 0 -116.5 24.5t-113.5 49t-85 24.5q-39 0 -58 -30.5t-14 -83.5h-102z" />
    <glyph glyph-name="uni00A0" unicode="&#xa0;" horiz-adv-x="477" 
 />
    <glyph glyph-name="exclamdown" unicode="&#xa1;" horiz-adv-x="573" 
d="M184 1305v188h203v-188h-203zM199 0v424l47 620h84l47 -620v-424h-178z" />
    <glyph glyph-name="cent" unicode="&#xa2;" horiz-adv-x="1077" 
d="M57 741q0 219 109.5 361t296.5 168v162h137v-162q160 -15 266 -109t125 -239h-174q-21 95 -97 148.5t-183 53.5q-145 0 -224.5 -104.5t-79.5 -280.5q0 -180 80.5 -275t221.5 -95q111 0 187.5 58.5t98.5 156.5h176q-26 -154 -133 -249.5t-264 -113.5v-160h-137v160
q-187 25 -296.5 164t-109.5 356z" />
    <glyph glyph-name="sterling" unicode="&#xa3;" horiz-adv-x="1312" 
d="M104 0v164h150v502h-150v149h150v260q0 199 117.5 317.5t318.5 118.5q181 0 297 -94.5t133 -249.5h-176q-13 84 -86 134.5t-170 50.5q-118 0 -188 -74t-70 -203v-260h475v-149h-475v-502h598v328h162v-492h-1086z" />
    <glyph glyph-name="currency" unicode="&#xa4;" horiz-adv-x="1366" 
d="M184 289l150 133q-90 121 -89 269t89 267l-150 129l111 111l127 -149q115 84 262.5 82.5t257.5 -84.5l127 153l109 -113l-144 -126q90 -120 91.5 -268t-89.5 -271l146 -133l-113 -107l-125 150q-116 -87 -259 -88t-261 88l-127 -150zM403 692q-1 -133 79 -215t202 -82
q119 2 199 85.5t80 211.5q0 125 -80.5 206t-202.5 81q-118 0 -197.5 -77t-79.5 -210z" />
    <glyph glyph-name="yen" unicode="&#xa5;" horiz-adv-x="1241" 
d="M12 1493h207l232 -430l163 -322h15l164 322l229 430h207l-430 -766h221v-152h-307v-131h307v-153h-307v-291h-185v291h-307v153h307v131h-307v152h221z" />
    <glyph glyph-name="brokenbar" unicode="&#xa6;" horiz-adv-x="626" 
d="M231 -70v619h162v-619h-162zM231 920v622h162v-622h-162z" />
    <glyph glyph-name="section" unicode="&#xa7;" horiz-adv-x="1036" 
d="M98 754q0 77 39 133.5t103 85.5v18q-109 76 -109 207q0 132 107 214.5t286 82.5q178 0 289 -85t119 -222h-182q-9 75 -74 115t-166 40q-186 0 -186 -141q0 -30 11.5 -56t23.5 -41t41 -33.5t40 -23.5t45 -20l3 -1.5l3 -1.5t3.5 -1.5t3.5 -1.5l221 -88q29 -11 52 -21.5
t58 -34t58.5 -50.5t41 -70t17.5 -94q0 -146 -127 -215v-21q105 -74 105 -201q0 -144 -107 -223.5t-289 -79.5t-294.5 81.5t-122.5 223.5h184q9 -73 73 -115t167 -42q192 0 192 147q0 68 -39 102.5t-125 69.5l-229 90q-32 13 -54.5 23.5t-60 35.5t-61 52t-42 69.5t-18.5 92.5
zM276 803q0 -35 13 -64t37 -49t44.5 -32t49.5 -25l221 -92q79 -36 84 -39q43 40 43 110q0 33 -10.5 60t-21 42t-35.5 31.5t-33 20.5t-35 16l-211 92q-10 4 -29.5 12t-64.5 29q-52 -43 -52 -112z" />
    <glyph glyph-name="dieresis" unicode="&#xa8;" horiz-adv-x="796" 
d="M119 1516v243h164v-243h-164zM510 1516v243h164v-243h-164z" />
    <glyph glyph-name="copyright" unicode="&#xa9;" horiz-adv-x="1918" 
d="M117 725q0 182 67.5 340t182.5 266.5t269.5 170t326.5 61.5q170 0 323.5 -61.5t267 -169t180 -264.5t66.5 -339q0 -184 -66.5 -343t-180.5 -268t-267.5 -171t-324.5 -62q-170 0 -324.5 61.5t-269 169.5t-182.5 266.5t-68 342.5zM184 725q0 -170 62 -317t167.5 -247
t246.5 -157t298 -57q211 0 387.5 96.5t283 277t106.5 408.5q0 169 -62 315.5t-167 246t-246 156t-297 56.5q-158 0 -300.5 -57t-248 -157.5t-168 -247t-62.5 -316.5zM520 725q0 200 127.5 325.5t325.5 125.5q170 0 289.5 -96.5t136.5 -250.5h-150q-13 98 -91 159t-189 61
q-138 0 -216.5 -89.5t-78.5 -232.5q0 -151 80 -236t215 -85q112 0 189 60.5t91 156.5h150q-15 -150 -135.5 -248.5t-294.5 -98.5q-196 0 -322.5 123.5t-126.5 325.5z" />
    <glyph glyph-name="ordfeminine" unicode="&#xaa;" horiz-adv-x="880" 
d="M92 952q0 112 78 173t211 61h203v35q0 153 -172 153q-71 0 -114.5 -28t-55.5 -78h-138q13 105 100.5 165t219.5 60q148 0 224.5 -76t76.5 -213v-303q0 -10 2 -20t14.5 -23.5t34.5 -13.5l25 2v-111q-35 -12 -72 -12q-67 0 -102.5 40.5t-32.5 106.5h-8q-28 -71 -92.5 -110
t-153.5 -39q-111 0 -179.5 63.5t-68.5 167.5zM236 956q0 -57 38 -87.5t103 -30.5q93 0 150 59t57 147v39h-185q-163 0 -163 -127z" />
    <glyph glyph-name="guillemotleft" unicode="&#xab;" horiz-adv-x="1073" 
d="M168 561l250 424h157l-225 -424l225 -428h-157zM553 561l248 424h162l-228 -424l228 -428h-162z" />
    <glyph glyph-name="logicalnot" unicode="&#xac;" horiz-adv-x="1310" 
d="M174 666v161h973v-514h-166v353h-807z" />
    <glyph glyph-name="uni00AD" unicode="&#xad;" horiz-adv-x="944" 
d="M125 555v121h694v-121h-694z" />
    <glyph glyph-name="registered" unicode="&#xae;" horiz-adv-x="1261" 
d="M92 973q0 236 153.5 387t385.5 151q152 0 276 -67.5t195.5 -191t71.5 -279.5q0 -234 -155.5 -386.5t-387.5 -152.5q-152 0 -275 68.5t-193.5 192t-70.5 278.5zM158 971q0 -208 136.5 -341.5t338.5 -133.5q203 0 339 134t136 343q0 210 -137 346.5t-340 136.5
q-201 0 -337 -137.5t-136 -347.5zM432 715v528h246q80 0 123 -41.5t43 -109.5q0 -95 -84 -136v-2q76 -20 76 -104v-76q0 -41 6 -59h-86q-8 12 -8 61v58q0 38 -17 57.5t-61 19.5h-150v-196h-88zM520 981h127q54 0 80.5 26t26.5 72q0 88 -101 88h-133v-186z" />
    <glyph glyph-name="macron" unicode="&#xaf;" horiz-adv-x="722" 
d="M41 1507v129h635v-129h-635z" />
    <glyph glyph-name="degree" unicode="&#xb0;" horiz-adv-x="851" 
d="M127 1204q0 132 83.5 215.5t209.5 83.5q131 0 219 -83t88 -216q0 -128 -87.5 -210.5t-219.5 -82.5q-126 0 -209.5 82.5t-83.5 210.5zM258 1204q0 -72 48.5 -122t117.5 -50q70 0 120 50t50 122q0 78 -49.5 128t-120.5 50q-70 0 -118 -50t-48 -128z" />
    <glyph glyph-name="plusminus" unicode="&#xb1;" horiz-adv-x="1370" 
d="M174 0v174h1022v-174h-1022zM174 694v166h420v357h180v-357h422v-166h-422v-356h-180v356h-420z" />
    <glyph glyph-name="uni00B2" unicode="&#xb2;" horiz-adv-x="921" 
d="M82 1421q-1 162 103 260.5t272 98.5q161 0 259.5 -92t98.5 -236q0 -74 -26.5 -140t-69.5 -116t-96 -95t-108 -86.5t-102.5 -81t-83 -87.5t-46.5 -98l198 8h348v-142h-723v39q0 88 30 164t77.5 130t105 102.5t115.5 92t105.5 87.5t77.5 100t30 119q0 90 -52.5 140
t-143.5 50q-101 0 -157 -57.5t-52 -159.5h-160z" />
    <glyph glyph-name="uni00B3" unicode="&#xb3;" horiz-adv-x="948" 
d="M94 963h166q-4 -109 53.5 -166.5t155.5 -57.5q99 0 159 55.5t60 145.5q0 95 -62.5 148t-170.5 53h-86v133h80q106 0 162.5 54t56.5 136q0 83 -56 128.5t-143 45.5q-99 0 -153.5 -57.5t-53.5 -161.5h-162q-6 161 97 261t274 100q155 0 259 -81.5t104 -221.5
q0 -179 -172 -256v-11q96 -35 144 -109.5t48 -166.5q0 -150 -108 -243t-279 -93q-173 0 -275.5 100.5t-97.5 264.5z" />
    <glyph glyph-name="acute" unicode="&#xb4;" horiz-adv-x="894" 
d="M244 1569l362 272l82 -141l-387 -221z" />
    <glyph glyph-name="paragraph" unicode="&#xb6;" horiz-adv-x="1384" 
d="M121 1122q0 174 111.5 272.5t297.5 98.5h635v-135h-149v-1360q0 -285 -279 -285h-524v123h311v916q-189 0 -296 101t-107 269zM676 -164h55q74 0 105.5 39t31.5 121v1362h-192v-1522z" />
    <glyph glyph-name="periodcentered" unicode="&#xb7;" horiz-adv-x="575" 
d="M135 578q0 67 44.5 113t107.5 46q64 0 109.5 -46.5t45.5 -112.5q0 -63 -45.5 -109.5t-109.5 -46.5q-63 0 -107.5 45.5t-44.5 110.5z" />
    <glyph glyph-name="cedilla" unicode="&#xb8;" horiz-adv-x="1083" 
d="M381 -274q31 -33 83 -43.5t93 10.5t41 69q0 49 -41.5 70t-132.5 -2v51l104 180h64v-57l-57 -92q69 6 122.5 -35.5t53.5 -118.5q0 -67 -37 -110.5t-89 -55.5t-108.5 -3t-95.5 38v99z" />
    <glyph glyph-name="uni00B9" unicode="&#xb9;" horiz-adv-x="727" 
d="M76 1444v123h45q111 0 182 54.5t74 143.5h145v-1151h-155v830h-291z" />
    <glyph glyph-name="ordmasculine" unicode="&#xba;" horiz-adv-x="907" 
d="M90 1106q0 171 101.5 279t263.5 108q161 0 261.5 -109t100.5 -280q0 -169 -100.5 -276t-261.5 -107q-162 0 -263.5 107t-101.5 278zM233 1106q0 -118 59 -191t163 -73q97 0 157 72.5t60 193.5q0 117 -58 190.5t-161 73.5q-99 0 -159.5 -72t-60.5 -194z" />
    <glyph glyph-name="guillemotright" unicode="&#xbb;" horiz-adv-x="1073" 
d="M117 133l227 428l-227 424h159l246 -424l-246 -428h-159zM502 133l227 428l-227 424h160l247 -424l-247 -428h-160z" />
    <glyph glyph-name="onequarter" unicode="&#xbc;" horiz-adv-x="1820" 
d="M61 1204v121h93q87 0 127.5 44t40.5 116v8h143v-969h-152v680h-252zM354 -94l836 1667h149l-835 -1667h-150zM1057 190v129l348 664h244v-655h110v-138h-110v-190h-152v190h-440zM1223 328h274v520z" />
    <glyph glyph-name="onehalf" unicode="&#xbd;" horiz-adv-x="1837" 
d="M61 1204v121h93q87 0 127.5 44t40.5 116v8h143v-969h-152v680h-252zM354 -94l836 1667h149l-835 -1667h-150zM1133 694q2 134 90.5 217.5t232.5 83.5q139 0 220 -79.5t81 -204.5q0 -71 -28 -133.5t-70.5 -106t-95 -88t-99.5 -79.5t-86 -80t-53 -91l156 6h274v-139h-602
v33q0 77 25 142.5t64.5 112t87.5 88t95.5 78.5t87 73.5t64.5 83t25 98.5q0 69 -42 111t-114 42q-76 0 -121 -51t-43 -129z" />
    <glyph glyph-name="threequarters" unicode="&#xbe;" horiz-adv-x="1968" 
d="M70 813h153q-1 -82 44.5 -127t117.5 -45t119 44t47 110q0 74 -50 114.5t-128 40.5h-72v140h61q80 0 124 41.5t44 105.5q0 66 -41.5 100.5t-103.5 34.5q-75 0 -118.5 -47t-41.5 -125h-153q-3 133 80 219t231 86q135 0 221 -70.5t86 -191.5q0 -65 -34.5 -121t-104.5 -88
v-10q78 -30 117 -90.5t39 -140.5q0 -126 -90.5 -205.5t-231.5 -79.5q-143 0 -230.5 84.5t-84.5 220.5zM502 -94l835 1667h150l-836 -1667h-149zM1204 190v129l348 664h244v-655h111v-138h-111v-190h-151v190h-441zM1370 328h275v520z" />
    <glyph glyph-name="questiondown" unicode="&#xbf;" horiz-adv-x="1126" 
d="M98 131q0 57 13 106t42.5 95.5t59.5 82t82 89.5q17 17 50.5 51t46 47.5t35.5 40t32 43.5t20.5 42.5t15 51.5t3.5 58v39h176v-39q0 -32 -3.5 -61t-14.5 -58t-18.5 -49.5t-27.5 -49t-28.5 -42t-36 -42.5t-35 -37.5t-39.5 -40t-37 -36.5q-78 -78 -116.5 -145.5t-38.5 -139.5
q0 -109 72 -170t194 -61q135 0 209.5 76t72.5 204h174q0 -198 -126.5 -317t-333.5 -119q-204 0 -323.5 104.5t-119.5 276.5zM465 1036v226h233v-226h-233z" />
    <glyph glyph-name="Agrave" unicode="&#xc0;" horiz-adv-x="1361" 
d="M8 0l563 1493h213l568 -1493h-201l-131 352h-686l-131 -352h-195zM291 1819l84 141l362 -272l-57 -91zM391 506h572l-95 256l-184 543h-10l-189 -543z" />
    <glyph glyph-name="Aacute" unicode="&#xc1;" horiz-adv-x="1361" 
d="M8 0l563 1493h213l568 -1493h-201l-131 352h-686l-131 -352h-195zM391 506h572l-95 256l-184 543h-10l-189 -543zM618 1686l363 272l82 -141l-387 -222z" />
    <glyph glyph-name="Acircumflex" unicode="&#xc2;" horiz-adv-x="1361" 
d="M8 0l563 1493h213l568 -1493h-201l-131 352h-686l-131 -352h-195zM379 1681l242 254h120l240 -252l-90 -86l-211 226l-215 -226zM391 506h572l-95 256l-184 543h-10l-189 -543z" />
    <glyph glyph-name="Atilde" unicode="&#xc3;" horiz-adv-x="1361" 
d="M8 0l563 1493h213l568 -1493h-201l-131 352h-686l-131 -352h-195zM358 1673q40 74 86 110.5t105 39.5q47 3 133.5 -38.5t128.5 -39.5q27 2 50 14.5t34.5 24.5t26.5 33l77 -60q-73 -143 -186 -149q-55 -3 -105 17.5t-91.5 41.5t-75.5 19q-35 -1 -57.5 -17t-47.5 -51z
M391 506h572l-95 256l-184 543h-10l-189 -543z" />
    <glyph glyph-name="Adieresis" unicode="&#xc4;" horiz-adv-x="1361" 
d="M8 0l563 1493h213l568 -1493h-201l-131 352h-686l-131 -352h-195zM391 506h572l-95 256l-184 543h-10l-189 -543zM401 1636v244h164v-244h-164zM793 1636v244h163v-244h-163z" />
    <glyph glyph-name="Aring" unicode="&#xc5;" horiz-adv-x="1361" 
d="M8 0l547 1448q-102 60 -102 190q0 99 62.5 160.5t162.5 61.5q101 0 163 -61t62 -161q0 -130 -102 -190l551 -1448h-201l-131 352h-686l-131 -352h-195zM391 506h572l-95 256l-184 543h-10l-189 -543zM563 1638q0 -56 32.5 -90.5t84.5 -34.5q51 0 83 35t32 90t-32 90
t-83 35q-52 0 -84.5 -34.5t-32.5 -90.5z" />
    <glyph glyph-name="AE" unicode="&#xc6;" horiz-adv-x="1955" 
d="M8 0l510 1493h1317v-170h-821v-496h702v-159h-702v-498h821v-170h-1008v414h-489l-135 -414h-195zM387 567h440v756h-192z" />
    <glyph glyph-name="Ccedilla" unicode="&#xc7;" horiz-adv-x="1538" 
d="M92 745q0 343 192.5 554.5t506.5 211.5q258 0 433 -137t212 -368h-191q-38 158 -159.5 247.5t-294.5 89.5q-230 0 -366 -163t-136 -435q0 -274 135 -436t364 -162q186 0 304 92t153 250h191q-29 -223 -195 -360.5t-412 -148.5l-36 -58q70 6 123 -35t53 -118
q0 -67 -37 -110.5t-89 -55.5t-108.5 -3t-95.5 38v98q31 -33 83 -43t93 11t41 69q0 31 -18 52t-57 27.5t-99 -12.5v51l51 91q-192 13 -337.5 111.5t-224.5 267t-79 384.5z" />
    <glyph glyph-name="Egrave" unicode="&#xc8;" horiz-adv-x="1320" 
d="M207 0v1493h993v-170h-807v-473h707v-162h-707v-518h807v-170h-993zM287 1819l84 141l362 -272l-57 -91z" />
    <glyph glyph-name="Eacute" unicode="&#xc9;" horiz-adv-x="1320" 
d="M207 0v1493h993v-170h-807v-473h707v-162h-707v-518h807v-170h-993zM614 1686l363 272l82 -141l-387 -222z" />
    <glyph glyph-name="Ecircumflex" unicode="&#xca;" horiz-adv-x="1320" 
d="M207 0v1493h993v-170h-807v-473h707v-162h-707v-518h807v-170h-993zM375 1681l241 254h121l240 -252l-90 -86l-211 226l-215 -226z" />
    <glyph glyph-name="Edieresis" unicode="&#xcb;" horiz-adv-x="1320" 
d="M207 0v1493h993v-170h-807v-473h707v-162h-707v-518h807v-170h-993zM397 1636v244h164v-244h-164zM788 1636v244h164v-244h-164z" />
    <glyph glyph-name="Igrave" unicode="&#xcc;" horiz-adv-x="600" 
d="M-86 1819l84 141l362 -272l-57 -91zM207 0v1493h186v-1493h-186z" />
    <glyph glyph-name="Iacute" unicode="&#xcd;" horiz-adv-x="600" 
d="M207 0v1493h186v-1493h-186zM242 1686l362 272l82 -141l-387 -222z" />
    <glyph glyph-name="Icircumflex" unicode="&#xce;" horiz-adv-x="600" 
d="M2 1681l242 254h121l239 -252l-90 -86l-211 226l-215 -226zM207 0v1493h186v-1493h-186z" />
    <glyph glyph-name="Idieresis" unicode="&#xcf;" horiz-adv-x="600" 
d="M25 1636v244h163v-244h-163zM207 0v1493h186v-1493h-186zM416 1636v244h164v-244h-164z" />
    <glyph glyph-name="Eth" unicode="&#xd0;" horiz-adv-x="1529" 
d="M31 692v158h176v643h567q209 0 360 -95t227.5 -262.5t76.5 -390.5t-76.5 -390t-228 -261t-359.5 -94h-567v692h-176zM393 170h371q224 0 350.5 154.5t126.5 423.5q0 277 -128.5 426t-348.5 149h-371v-473h277v-158h-277v-522z" />
    <glyph glyph-name="Ntilde" unicode="&#xd1;" horiz-adv-x="1619" 
d="M207 0v1493h231l793 -1260h10l-14 453v807h184v-1493h-231l-791 1260h-8l12 -435v-825h-186zM545 1673q40 75 85.5 111t104.5 39q47 3 133.5 -38.5t128.5 -39.5q27 2 50 14.5t34.5 24.5t26.5 33l78 -60q-73 -143 -187 -149q-55 -3 -105 17.5t-91.5 41.5t-75.5 19
q-35 -1 -57 -17t-47 -51z" />
    <glyph glyph-name="Ograve" unicode="&#xd2;" horiz-adv-x="1579" 
d="M92 745q0 228 86.5 402t244.5 269t365 95q210 0 369 -95.5t244.5 -268.5t85.5 -399q0 -348 -191.5 -558t-507.5 -210q-211 0 -369.5 96.5t-242.5 269.5t-84 399zM289 748q0 -273 135.5 -434.5t363.5 -161.5q232 0 368 162t136 431q0 271 -137.5 434.5t-366.5 163.5
q-228 0 -363.5 -162t-135.5 -433zM401 1819l84 141l363 -272l-57 -91z" />
    <glyph glyph-name="Oacute" unicode="&#xd3;" horiz-adv-x="1579" 
d="M92 745q0 228 86.5 402t244.5 269t365 95q210 0 369 -95.5t244.5 -268.5t85.5 -399q0 -348 -191.5 -558t-507.5 -210q-211 0 -369.5 96.5t-242.5 269.5t-84 399zM289 748q0 -273 135.5 -434.5t363.5 -161.5q232 0 368 162t136 431q0 271 -137.5 434.5t-366.5 163.5
q-228 0 -363.5 -162t-135.5 -433zM729 1686l363 272l82 -141l-388 -222z" />
    <glyph glyph-name="Ocircumflex" unicode="&#xd4;" horiz-adv-x="1579" 
d="M92 745q0 228 86.5 402t244.5 269t365 95q210 0 369 -95.5t244.5 -268.5t85.5 -399q0 -348 -191.5 -558t-507.5 -210q-211 0 -369.5 96.5t-242.5 269.5t-84 399zM289 748q0 -273 135.5 -434.5t363.5 -161.5q232 0 368 162t136 431q0 271 -137.5 434.5t-366.5 163.5
q-228 0 -363.5 -162t-135.5 -433zM489 1681l242 254h121l240 -252l-91 -86l-210 226l-216 -226z" />
    <glyph glyph-name="Otilde" unicode="&#xd5;" horiz-adv-x="1579" 
d="M92 745q0 228 86.5 402t244.5 269t365 95q210 0 369 -95.5t244.5 -268.5t85.5 -399q0 -348 -191.5 -558t-507.5 -210q-211 0 -369.5 96.5t-242.5 269.5t-84 399zM289 748q0 -273 135.5 -434.5t363.5 -161.5q232 0 368 162t136 431q0 271 -137.5 434.5t-366.5 163.5
q-228 0 -363.5 -162t-135.5 -433zM469 1673q40 75 85.5 111t104.5 39q47 3 134 -38.5t129 -39.5q27 2 50 15t33.5 24.5t26.5 32.5l78 -60q-73 -143 -186 -149q-55 -3 -105.5 17.5t-92 41.5t-75.5 19q-35 -1 -57 -17t-47 -51z" />
    <glyph glyph-name="Odieresis" unicode="&#xd6;" horiz-adv-x="1579" 
d="M92 745q0 228 86.5 402t244.5 269t365 95q210 0 369 -95.5t244.5 -268.5t85.5 -399q0 -348 -191.5 -558t-507.5 -210q-211 0 -369.5 96.5t-242.5 269.5t-84 399zM289 748q0 -273 135.5 -434.5t363.5 -161.5q232 0 368 162t136 431q0 271 -137.5 434.5t-366.5 163.5
q-228 0 -363.5 -162t-135.5 -433zM512 1636v244h164v-244h-164zM903 1636v244h164v-244h-164z" />
    <glyph glyph-name="multiply" unicode="&#xd7;" horiz-adv-x="1495" 
d="M197 164l438 450l-438 453l114 117l428 -445h19l426 445l114 -117l-436 -453l436 -450l-114 -121l-426 446h-19l-428 -446z" />
    <glyph glyph-name="Oslash" unicode="&#xd8;" horiz-adv-x="1773" 
d="M102 270l129 95q-75 170 -75 380q0 228 86.5 402t244.5 269t365 95q181 0 324 -72t235 -204l152 111l90 -123l-168 -123q65 -154 65 -352q0 -348 -191.5 -558t-506.5 -210q-175 0 -314 67t-231 191l-123 -91zM350 748q0 -147 41 -265l869 639q-67 106 -171.5 163.5
t-236.5 57.5q-230 0 -366 -162t-136 -433zM459 348q138 -196 393 -196q232 0 367 162t135 431q0 133 -33 236z" />
    <glyph glyph-name="Ugrave" unicode="&#xd9;" horiz-adv-x="1589" 
d="M195 553v940h186v-924q0 -197 111.5 -307t302.5 -110q190 0 302.5 110t112.5 307v924h185v-940q0 -262 -161.5 -417.5t-438.5 -155.5q-283 0 -441.5 155.5t-158.5 417.5zM408 1819l84 141l362 -272l-57 -91z" />
    <glyph glyph-name="Uacute" unicode="&#xda;" horiz-adv-x="1589" 
d="M195 553v940h186v-924q0 -197 111.5 -307t302.5 -110q190 0 302.5 110t112.5 307v924h185v-940q0 -262 -161.5 -417.5t-438.5 -155.5q-283 0 -441.5 155.5t-158.5 417.5zM735 1686l363 272l82 -141l-387 -222z" />
    <glyph glyph-name="Ucircumflex" unicode="&#xdb;" horiz-adv-x="1589" 
d="M195 553v940h186v-924q0 -197 111.5 -307t302.5 -110q190 0 302.5 110t112.5 307v924h185v-940q0 -262 -161.5 -417.5t-438.5 -155.5q-283 0 -441.5 155.5t-158.5 417.5zM496 1681l241 254h121l240 -252l-90 -86l-211 226l-215 -226z" />
    <glyph glyph-name="Udieresis" unicode="&#xdc;" horiz-adv-x="1589" 
d="M195 553v940h186v-924q0 -197 111.5 -307t302.5 -110q190 0 302.5 110t112.5 307v924h185v-940q0 -262 -161.5 -417.5t-438.5 -155.5q-283 0 -441.5 155.5t-158.5 417.5zM518 1636v244h164v-244h-164zM909 1636v244h164v-244h-164z" />
    <glyph glyph-name="Yacute" unicode="&#xdd;" horiz-adv-x="1325" 
d="M12 1493h226l231 -387l188 -326h15l190 328l230 385h223l-561 -889v-604h-185v604zM604 1686l363 272l82 -141l-387 -222z" />
    <glyph glyph-name="Thorn" unicode="&#xde;" horiz-adv-x="1378" 
d="M221 0v1536h182v-295h375q238 0 372 -131t134 -350t-143 -343t-379 -124h-359v-293h-182zM403 459h363q156 0 244 82.5t88 222.5q0 144 -92 225.5t-240 81.5h-363v-612z" />
    <glyph glyph-name="germandbls" unicode="&#xdf;" horiz-adv-x="1210" 
d="M27 883v149h153v66q0 201 115 312.5t307 111.5q185 0 299.5 -102.5t114.5 -264.5q0 -113 -53 -197.5t-154 -121.5v-17q150 -34 229.5 -143.5t79.5 -249.5q0 -190 -135.5 -308t-357.5 -118h-125v150h104q154 0 244 82.5t90 213.5q0 136 -92.5 214.5t-237.5 78.5h-33v150
h31q109 0 170.5 66t61.5 171q0 108 -66.5 171t-175.5 63q-117 0 -179.5 -70.5t-62.5 -191.5v-1098h-174v883h-153z" />
    <glyph glyph-name="agrave" unicode="&#xe0;" 
d="M96 305q0 159 114.5 245.5t309.5 86.5h299v82q0 229 -256 229q-118 0 -184 -53.5t-68 -146.5h-174q9 158 128.5 250t314.5 92q201 0 308 -100.5t107 -284.5v-705h-159l-15 180h-12q-38 -96 -130 -148t-218 -52q-167 0 -266 88t-99 237zM188 1421l84 142l363 -273l-57 -90
zM279 313q0 -90 57.5 -138t161.5 -48q143 0 232 89.5t89 234.5v55h-278q-132 0 -197 -50.5t-65 -142.5z" />
    <glyph glyph-name="aacute" unicode="&#xe1;" 
d="M96 305q0 159 114.5 245.5t309.5 86.5h299v82q0 229 -256 229q-118 0 -184 -53.5t-68 -146.5h-174q9 158 128.5 250t314.5 92q201 0 308 -100.5t107 -284.5v-705h-159l-15 180h-12q-38 -96 -130 -148t-218 -52q-167 0 -266 88t-99 237zM279 313q0 -90 57.5 -138
t161.5 -48q143 0 232 89.5t89 234.5v55h-278q-132 0 -197 -50.5t-65 -142.5zM516 1288l363 273l82 -142l-388 -221z" />
    <glyph glyph-name="acircumflex" unicode="&#xe2;" 
d="M96 305q0 159 114.5 245.5t309.5 86.5h299v82q0 229 -256 229q-118 0 -184 -53.5t-68 -146.5h-174q9 158 128.5 250t314.5 92q201 0 308 -100.5t107 -284.5v-705h-159l-15 180h-12q-38 -96 -130 -148t-218 -52q-167 0 -266 88t-99 237zM276 1284l242 254h121l240 -252
l-91 -86l-210 225l-216 -225zM279 313q0 -90 57.5 -138t161.5 -48q143 0 232 89.5t89 234.5v55h-278q-132 0 -197 -50.5t-65 -142.5z" />
    <glyph glyph-name="atilde" unicode="&#xe3;" 
d="M96 305q0 159 114.5 245.5t309.5 86.5h299v82q0 229 -256 229q-118 0 -184 -53.5t-68 -146.5h-174q9 158 128.5 250t314.5 92q201 0 308 -100.5t107 -284.5v-705h-159l-15 180h-12q-38 -96 -130 -148t-218 -52q-167 0 -266 88t-99 237zM256 1276q40 74 85.5 110t104.5 39
q47 3 134 -38t129 -39q27 2 50 14.5t34 24t26 32.5l78 -59q-74 -144 -186 -150q-55 -3 -105.5 17.5t-92 41.5t-75.5 19q-35 -1 -57 -16.5t-47 -50.5zM279 313q0 -90 57.5 -138t161.5 -48q143 0 232 89.5t89 234.5v55h-278q-132 0 -197 -50.5t-65 -142.5z" />
    <glyph glyph-name="adieresis" unicode="&#xe4;" 
d="M96 305q0 159 114.5 245.5t309.5 86.5h299v82q0 229 -256 229q-118 0 -184 -53.5t-68 -146.5h-174q9 158 128.5 250t314.5 92q201 0 308 -100.5t107 -284.5v-705h-159l-15 180h-12q-38 -96 -130 -148t-218 -52q-167 0 -266 88t-99 237zM279 313q0 -90 57.5 -138
t161.5 -48q143 0 232 89.5t89 234.5v55h-278q-132 0 -197 -50.5t-65 -142.5zM299 1239v244h164v-244h-164zM690 1239v244h164v-244h-164z" />
    <glyph glyph-name="aring" unicode="&#xe5;" 
d="M96 305q0 159 114.5 245.5t309.5 86.5h299v82q0 229 -256 229q-118 0 -184 -53.5t-68 -146.5h-174q7 124 82 207.5t205 115.5q-74 61 -74 170q0 99 62.5 160t162.5 61q101 0 163.5 -60.5t62.5 -160.5q0 -109 -72 -168q130 -34 198 -128t68 -240v-705h-159l-15 180h-12
q-38 -96 -130 -148t-218 -52q-167 0 -266 88t-99 237zM279 313q0 -90 57.5 -138t161.5 -48q143 0 232 89.5t89 234.5v55h-278q-132 0 -197 -50.5t-65 -142.5zM461 1241q0 -56 32.5 -90.5t84.5 -34.5q51 0 82.5 34.5t31.5 90.5t-31.5 90.5t-82.5 34.5q-52 0 -84.5 -34.5
t-32.5 -90.5z" />
    <glyph glyph-name="ae" unicode="&#xe6;" horiz-adv-x="1902" 
d="M100 305q0 160 108.5 253t309.5 93h295v45q0 122 -70 185t-194 63q-110 0 -181.5 -48.5t-80.5 -131.5h-174q17 148 135 237t305 89q132 0 230 -49t151 -140q63 91 164.5 140t224.5 49q211 0 344 -134t133 -348q0 -45 -6 -114h-788q-3 -163 84 -262t253 -99
q113 0 192.5 48.5t106.5 131.5h168q-30 -155 -158.5 -244t-310.5 -89q-158 0 -271 67t-175 189q-51 -119 -164 -187.5t-262 -68.5q-165 0 -267 89.5t-102 235.5zM281 324q0 -93 59 -142t160 -49q145 0 230 92t85 244v43h-285q-249 0 -249 -188zM1006 637h620
q-1 138 -86 219.5t-217 81.5q-138 0 -224.5 -82t-92.5 -219z" />
    <glyph glyph-name="ccedilla" unicode="&#xe7;" 
d="M90 532q0 252 140.5 405t377.5 153q188 0 314 -101.5t143 -267.5h-180q-22 104 -99 157.5t-184 53.5q-159 0 -244.5 -109.5t-85.5 -292.5q0 -189 88 -292t240 -103q119 0 198 63.5t91 166.5h182q-15 -163 -132 -267t-296 -116l-43 -70q69 6 122.5 -35.5t53.5 -118.5
q0 -67 -37 -110.5t-89 -55.5t-108.5 -3t-95.5 38v99q31 -33 83 -43.5t93.5 10.5t41.5 69q0 49 -42 70t-133 -2v51l58 101q-210 19 -333.5 167t-123.5 383z" />
    <glyph glyph-name="egrave" unicode="&#xe8;" horiz-adv-x="1165" 
d="M90 532q0 253 138.5 405.5t365.5 152.5q223 0 348 -131t125 -351q0 -64 -6 -110h-791q-3 -177 86 -275t244 -98q118 0 197 54.5t100 142.5h178q-28 -154 -158.5 -248t-320.5 -94q-227 0 -366.5 150t-139.5 402zM193 1421l83 142l363 -273l-57 -90zM272 629h619
q0 152 -78 233.5t-221 81.5q-140 0 -228 -86.5t-92 -228.5z" />
    <glyph glyph-name="eacute" unicode="&#xe9;" horiz-adv-x="1165" 
d="M90 532q0 253 138.5 405.5t365.5 152.5q223 0 348 -131t125 -351q0 -64 -6 -110h-791q-3 -177 86 -275t244 -98q118 0 197 54.5t100 142.5h178q-28 -154 -158.5 -248t-320.5 -94q-227 0 -366.5 150t-139.5 402zM272 629h619q0 152 -78 233.5t-221 81.5q-140 0 -228 -86.5
t-92 -228.5zM520 1288l363 273l82 -142l-387 -221z" />
    <glyph glyph-name="ecircumflex" unicode="&#xea;" horiz-adv-x="1165" 
d="M90 532q0 253 138.5 405.5t365.5 152.5q223 0 348 -131t125 -351q0 -64 -6 -110h-791q-3 -177 86 -275t244 -98q118 0 197 54.5t100 142.5h178q-28 -154 -158.5 -248t-320.5 -94q-227 0 -366.5 150t-139.5 402zM272 629h619q0 152 -78 233.5t-221 81.5q-140 0 -228 -86.5
t-92 -228.5zM281 1284l241 254h121l240 -252l-90 -86l-211 225l-215 -225z" />
    <glyph glyph-name="edieresis" unicode="&#xeb;" horiz-adv-x="1165" 
d="M90 532q0 253 138.5 405.5t365.5 152.5q223 0 348 -131t125 -351q0 -64 -6 -110h-791q-3 -177 86 -275t244 -98q118 0 197 54.5t100 142.5h178q-28 -154 -158.5 -248t-320.5 -94q-227 0 -366.5 150t-139.5 402zM272 629h619q0 152 -78 233.5t-221 81.5q-140 0 -228 -86.5
t-92 -228.5zM303 1239v244h164v-244h-164zM694 1239v244h164v-244h-164z" />
    <glyph glyph-name="igrave" unicode="&#xec;" horiz-adv-x="534" 
d="M-119 1395l84 141l363 -272l-58 -90zM178 0v1069h178v-1069h-178z" />
    <glyph glyph-name="iacute" unicode="&#xed;" horiz-adv-x="534" 
d="M178 0v1069h178v-1069h-178zM209 1262l362 272l82 -141l-387 -222z" />
    <glyph glyph-name="icircumflex" unicode="&#xee;" horiz-adv-x="534" 
d="M-31 1255l242 254h121l239 -252l-90 -86l-211 226l-215 -226zM178 0v1069h178v-1069h-178z" />
    <glyph glyph-name="idieresis" unicode="&#xef;" horiz-adv-x="534" 
d="M-8 1210v244h164v-244h-164zM178 0v1069h178v-1069h-178zM383 1210v244h164v-244h-164z" />
    <glyph glyph-name="eth" unicode="&#xf0;" horiz-adv-x="1259" 
d="M106 487q0 223 139 370t357 147q62 0 133 -27l6 4l-88 92l-100 125l-250 -92v133l168 64l-182 241h225l135 -176l264 96v-131l-188 -67l203 -269q42 -56 58 -77t55 -83t57 -106.5t34.5 -111.5t16.5 -132q0 -219 -147 -363t-377 -144q-228 0 -373.5 141.5t-145.5 365.5z
M289 498q0 -160 93 -260.5t245 -100.5q151 0 244.5 101t93.5 260q0 156 -93.5 256t-244.5 100q-149 0 -243.5 -98t-94.5 -258z" />
    <glyph glyph-name="ntilde" unicode="&#xf1;" horiz-adv-x="1265" 
d="M178 0v1069h156l22 -199h15q50 103 145 161.5t215 58.5q174 0 272.5 -117t98.5 -316v-657h-178v639q0 293 -252 293q-141 0 -228.5 -103t-87.5 -270v-559h-178zM379 1276q40 74 85.5 110t104.5 39q47 3 133.5 -38t128.5 -39q27 2 50 14.5t34.5 24.5t26.5 32l78 -59
q-74 -144 -186 -150q-55 -3 -105.5 17.5t-92 41.5t-75.5 19q-35 -1 -57 -16.5t-47 -50.5z" />
    <glyph glyph-name="ograve" unicode="&#xf2;" horiz-adv-x="1208" 
d="M90 530q0 248 142.5 404t373.5 156q229 0 369.5 -154.5t140.5 -403.5q0 -247 -140 -399.5t-370 -152.5q-232 0 -374 152t-142 398zM219 1421l84 142l363 -273l-58 -90zM272 535q0 -182 87.5 -290t244.5 -108q152 0 241 106.5t89 293.5q0 180 -86.5 287.5t-243.5 107.5
q-152 0 -242 -106t-90 -291z" />
    <glyph glyph-name="oacute" unicode="&#xf3;" horiz-adv-x="1208" 
d="M90 530q0 248 142.5 404t373.5 156q229 0 369.5 -154.5t140.5 -403.5q0 -247 -140 -399.5t-370 -152.5q-232 0 -374 152t-142 398zM272 535q0 -182 87.5 -290t244.5 -108q152 0 241 106.5t89 293.5q0 180 -86.5 287.5t-243.5 107.5q-152 0 -242 -106t-90 -291zM547 1288
l362 273l82 -142l-387 -221z" />
    <glyph glyph-name="ocircumflex" unicode="&#xf4;" horiz-adv-x="1208" 
d="M90 530q0 248 142.5 404t373.5 156q229 0 369.5 -154.5t140.5 -403.5q0 -247 -140 -399.5t-370 -152.5q-232 0 -374 152t-142 398zM272 535q0 -182 87.5 -290t244.5 -108q152 0 241 106.5t89 293.5q0 180 -86.5 287.5t-243.5 107.5q-152 0 -242 -106t-90 -291zM307 1284
l242 254h121l239 -252l-90 -86l-211 225l-215 -225z" />
    <glyph glyph-name="otilde" unicode="&#xf5;" horiz-adv-x="1208" 
d="M90 530q0 248 142.5 404t373.5 156q229 0 369.5 -154.5t140.5 -403.5q0 -247 -140 -399.5t-370 -152.5q-232 0 -374 152t-142 398zM272 535q0 -182 87.5 -290t244.5 -108q152 0 241 106.5t89 293.5q0 180 -86.5 287.5t-243.5 107.5q-152 0 -242 -106t-90 -291zM287 1276
q40 74 85.5 110t104.5 39q47 3 133.5 -38t128.5 -39q27 2 50 14.5t34.5 24.5t26.5 32l78 -59q-74 -144 -187 -150q-55 -3 -105 17.5t-91.5 41.5t-75.5 19q-35 -1 -57 -16.5t-47 -50.5z" />
    <glyph glyph-name="odieresis" unicode="&#xf6;" horiz-adv-x="1208" 
d="M90 530q0 248 142.5 404t373.5 156q229 0 369.5 -154.5t140.5 -403.5q0 -247 -140 -399.5t-370 -152.5q-232 0 -374 152t-142 398zM272 535q0 -182 87.5 -290t244.5 -108q152 0 241 106.5t89 293.5q0 180 -86.5 287.5t-243.5 107.5q-152 0 -242 -106t-90 -291zM330 1239
v244h164v-244h-164zM721 1239v244h164v-244h-164z" />
    <glyph glyph-name="divide" unicode="&#xf7;" horiz-adv-x="1372" 
d="M180 520v164h1008v-164h-1008zM561 76v250h238v-250h-238zM561 893v250h238v-250h-238z" />
    <glyph glyph-name="oslash" unicode="&#xf8;" horiz-adv-x="1290" 
d="M66 188l114 84q-51 117 -51 258q0 249 141.5 404.5t372.5 155.5q125 0 226 -48t169 -137l115 86l74 -108l-123 -90q49 -113 49 -261q0 -247 -140 -399.5t-370 -152.5q-126 0 -227.5 47.5t-169.5 134.5l-109 -80zM309 535q0 -81 19 -152l573 422q-90 127 -260 127
q-152 0 -242 -106t-90 -291zM383 262q89 -125 258 -125q152 0 242 106.5t90 293.5q0 77 -19 145z" />
    <glyph glyph-name="ugrave" unicode="&#xf9;" horiz-adv-x="1234" 
d="M164 387v682h176v-657q0 -138 61.5 -207.5t176.5 -69.5q145 0 231 103t86 272v559h178v-1069h-151l-25 199h-16q-43 -100 -140 -159.5t-223 -59.5q-166 0 -260 106t-94 301zM231 1421l84 142l363 -273l-57 -90z" />
    <glyph glyph-name="uacute" unicode="&#xfa;" horiz-adv-x="1234" 
d="M164 387v682h176v-657q0 -138 61.5 -207.5t176.5 -69.5q145 0 231 103t86 272v559h178v-1069h-151l-25 199h-16q-43 -100 -140 -159.5t-223 -59.5q-166 0 -260 106t-94 301zM559 1288l363 273l82 -142l-388 -221z" />
    <glyph glyph-name="ucircumflex" unicode="&#xfb;" horiz-adv-x="1234" 
d="M164 387v682h176v-657q0 -138 61.5 -207.5t176.5 -69.5q145 0 231 103t86 272v559h178v-1069h-151l-25 199h-16q-43 -100 -140 -159.5t-223 -59.5q-166 0 -260 106t-94 301zM319 1284l242 254h121l240 -252l-91 -86l-210 225l-215 -225z" />
    <glyph glyph-name="udieresis" unicode="&#xfc;" horiz-adv-x="1234" 
d="M164 387v682h176v-657q0 -138 61.5 -207.5t176.5 -69.5q145 0 231 103t86 272v559h178v-1069h-151l-25 199h-16q-43 -100 -140 -159.5t-223 -59.5q-166 0 -260 106t-94 301zM342 1239v244h164v-244h-164zM733 1239v244h164v-244h-164z" />
    <glyph glyph-name="yacute" unicode="&#xfd;" horiz-adv-x="958" 
d="M-2 1069h195l184 -518l108 -330h13l102 330l170 518h191l-386 -1085q-18 -51 -37.5 -93t-54.5 -91.5t-76.5 -83t-104 -56t-136.5 -22.5q-53 0 -94 10v151q33 -6 80 -6q163 0 229 174l22 62zM418 1288l362 273l82 -142l-387 -221z" />
    <glyph glyph-name="thorn" unicode="&#xfe;" horiz-adv-x="1284" 
d="M178 -342v1835h178v-614h13q41 95 139 153t229 58q209 0 333 -150t124 -405q0 -253 -127 -404t-334 -151q-129 0 -226.5 58.5t-137.5 158.5h-13v-539h-178zM356 461q0 -144 94 -235t238 -91q154 0 240 108.5t86 291.5q0 194 -86.5 295.5t-235.5 101.5q-146 0 -241 -93
t-95 -233v-145z" />
    <glyph glyph-name="ydieresis" unicode="&#xff;" horiz-adv-x="958" 
d="M-2 1069h195l184 -518l108 -330h13l102 330l170 518h191l-386 -1085q-18 -51 -37.5 -93t-54.5 -91.5t-76.5 -83t-104 -56t-136.5 -22.5q-53 0 -94 10v151q33 -6 80 -6q163 0 229 174l22 62zM201 1239v244h164v-244h-164zM592 1239v244h164v-244h-164z" />
    <glyph glyph-name="OE" unicode="&#x152;" horiz-adv-x="1976" 
d="M92 748q0 219 91.5 388.5t258 263t381.5 93.5h1032v-170h-763v-496h563v-159h-563v-494h763v-174h-1032q-216 0 -382 94t-257.5 264t-91.5 390zM289 748q0 -256 146 -415t388 -159h88v1149h-88q-242 0 -388 -159t-146 -416z" />
    <glyph glyph-name="oe" unicode="&#x153;" horiz-adv-x="2031" 
d="M90 530q0 248 142.5 404t373.5 156q141 0 252 -62t176 -174q65 113 175.5 174.5t250.5 61.5q223 0 348 -131t125 -351q0 -69 -8 -110h-788q-3 -177 85.5 -275t241.5 -98q117 0 197 54.5t102 142.5h179q-28 -153 -158.5 -247.5t-321.5 -94.5q-141 0 -252 61t-176 172
q-66 -111 -176 -172t-252 -61q-232 0 -374 152t-142 398zM272 535q0 -182 87.5 -290t244.5 -108q152 0 241 106.5t89 293.5q0 180 -86.5 287.5t-243.5 107.5q-152 0 -242 -106t-90 -291zM1139 629h618q0 152 -78 233.5t-221 81.5q-140 0 -227.5 -86.5t-91.5 -228.5z" />
    <glyph glyph-name="Ydieresis" unicode="&#x178;" horiz-adv-x="1325" 
d="M12 1493h226l231 -387l188 -326h15l190 328l230 385h223l-561 -889v-604h-185v604zM387 1636v244h164v-244h-164zM778 1636v244h164v-244h-164z" />
    <glyph glyph-name="circumflex" unicode="&#x2c6;" horiz-adv-x="729" 
d="M66 1565l241 254h121l240 -252l-90 -86l-211 225l-215 -225z" />
    <glyph glyph-name="tilde" unicode="&#x2dc;" horiz-adv-x="679" 
d="M18 1556q40 74 86 110.5t105 39.5q47 3 133.5 -38.5t128.5 -39.5q27 2 50 14.5t34.5 24.5t26.5 33l77 -60q-73 -143 -186 -149q-55 -3 -105 17.5t-91.5 41.5t-75.5 19q-35 -1 -57.5 -17t-47.5 -51z" />
    <glyph glyph-name="uni2000" unicode="&#x2000;" horiz-adv-x="980" 
 />
    <glyph glyph-name="uni2001" unicode="&#x2001;" horiz-adv-x="1960" 
 />
    <glyph glyph-name="uni2002" unicode="&#x2002;" horiz-adv-x="980" 
 />
    <glyph glyph-name="uni2003" unicode="&#x2003;" horiz-adv-x="1960" 
 />
    <glyph glyph-name="uni2004" unicode="&#x2004;" horiz-adv-x="653" 
 />
    <glyph glyph-name="uni2005" unicode="&#x2005;" horiz-adv-x="490" 
 />
    <glyph glyph-name="uni2006" unicode="&#x2006;" horiz-adv-x="326" 
 />
    <glyph glyph-name="uni2007" unicode="&#x2007;" horiz-adv-x="326" 
 />
    <glyph glyph-name="uni2008" unicode="&#x2008;" horiz-adv-x="245" 
 />
    <glyph glyph-name="uni2009" unicode="&#x2009;" horiz-adv-x="392" 
 />
    <glyph glyph-name="uni200A" unicode="&#x200a;" horiz-adv-x="108" 
 />
    <glyph glyph-name="uni2010" unicode="&#x2010;" horiz-adv-x="944" 
d="M125 555v121h694v-121h-694z" />
    <glyph glyph-name="uni2011" unicode="&#x2011;" horiz-adv-x="944" 
d="M125 555v121h694v-121h-694z" />
    <glyph glyph-name="figuredash" unicode="&#x2012;" horiz-adv-x="944" 
d="M125 555v121h694v-121h-694z" />
    <glyph glyph-name="endash" unicode="&#x2013;" horiz-adv-x="1304" 
d="M125 555v121h1055v-121h-1055z" />
    <glyph glyph-name="emdash" unicode="&#x2014;" horiz-adv-x="1705" 
d="M125 555v121h1456v-121h-1456z" />
    <glyph glyph-name="quoteleft" unicode="&#x2018;" horiz-adv-x="415" 
d="M84 983v301q0 104 68 164.5t180 60.5v-86q-84 0 -114 -40t-30 -103v-49h125v-248h-229z" />
    <glyph glyph-name="quoteright" unicode="&#x2019;" horiz-adv-x="409" 
d="M90 971v86q45 0 75 12t44 34.5t19 45t5 51.5v49h-124v248h229v-301q0 -104 -68 -164.5t-180 -60.5z" />
    <glyph glyph-name="quotesinglbase" unicode="&#x201a;" horiz-adv-x="415" 
d="M84 -193q45 0 75 12.5t44 35t19 45t5 51.5v49h-125v248h230v-301q0 -104 -68 -165t-180 -61v86z" />
    <glyph glyph-name="quotedblleft" unicode="&#x201c;" horiz-adv-x="821" 
d="M84 983v301q0 104 68 164.5t180 60.5v-86q-83 0 -112.5 -40t-29.5 -103v-49h123v-248h-229zM487 983v301q0 104 68 164.5t180 60.5v-86q-83 0 -113 -40t-30 -103v-49h125v-248h-230z" />
    <glyph glyph-name="quotedblright" unicode="&#x201d;" horiz-adv-x="800" 
d="M92 971v86q84 0 114 40t30 103v49h-123v248h227v-301q0 -105 -67.5 -165t-180.5 -60zM483 971v86q83 0 112.5 40t29.5 103v49h-123v248h229v-301q0 -104 -68 -164.5t-180 -60.5z" />
    <glyph glyph-name="quotedblbase" unicode="&#x201e;" horiz-adv-x="806" 
d="M102 -193q45 0 75 12.5t44 35t19.5 45t5.5 51.5v49h-123v248h227v-301q0 -105 -67.5 -165.5t-180.5 -60.5v86zM500 -193q45 0 75 12.5t44 35t19 45t5 51.5v49h-125v248h230v-301q0 -104 -68 -165t-180 -61v86z" />
    <glyph glyph-name="bullet" unicode="&#x2022;" horiz-adv-x="802" 
d="M137 565q0 117 76.5 197t185.5 80t187 -80.5t78 -196.5q0 -109 -78.5 -188.5t-186.5 -79.5t-185 79.5t-77 188.5z" />
    <glyph glyph-name="ellipsis" unicode="&#x2026;" horiz-adv-x="1355" 
d="M137 0v258h230v-258h-230zM563 0v258h230v-258h-230zM989 0v258h230v-258h-230z" />
    <glyph glyph-name="uni202F" unicode="&#x202f;" horiz-adv-x="392" 
 />
    <glyph glyph-name="guilsinglleft" unicode="&#x2039;" horiz-adv-x="673" 
d="M115 561l245 424h166l-225 -424l225 -428h-166z" />
    <glyph glyph-name="guilsinglright" unicode="&#x203a;" horiz-adv-x="675" 
d="M147 133l226 428l-226 424h168l246 -424l-246 -428h-168z" />
    <glyph glyph-name="uni205F" unicode="&#x205f;" horiz-adv-x="490" 
 />
    <glyph glyph-name="Euro" unicode="&#x20ac;" horiz-adv-x="1525" 
d="M55 520v142h138q-3 44 -3 86q0 52 7 120h-142v140h162q55 241 213 372t393 131q232 0 390.5 -128.5t197.5 -338.5h-194q-36 147 -141 225.5t-257 78.5q-161 0 -263 -88t-144 -252h561l-19 -140h-567q-6 -59 -6 -125q0 -54 2 -81h559l-18 -142h-523q40 -187 149 -280
t271 -93q157 0 258.5 81.5t137.5 222.5h194q-43 -215 -203 -342t-393 -127q-243 0 -399.5 142t-204.5 396h-156z" />
    <glyph glyph-name="trademark" unicode="&#x2122;" horiz-adv-x="1409" 
d="M49 1401v94h479v-94h-192v-541h-103v541h-184zM623 860v635h129l184 -420h4l184 420h131v-635h-100v309l8 183h-6l-219 -480l-217 480h-6l6 -183v-309h-98z" />
    <glyph glyph-name="uni25FC" unicode="&#x25fc;" horiz-adv-x="1064" 
d="M0 0v1065h1065v-1065h-1065z" />
    <glyph glyph-name="uniFB03" unicode="&#xfb03;" horiz-adv-x="1845" 
d="M29 922v147h192v141q0 152 83 227.5t231 75.5q66 0 120 -14v-145q-46 10 -96 10q-87 0 -124.5 -43t-37.5 -129v-123h457v141q0 152 83 227.5t230 75.5q67 0 121 -14v-145q-46 10 -96 10q-87 0 -124.5 -43t-37.5 -129v-123h637v-1069h-174l-2 922h-461v-922h-176v922h-457
v-922h-176v922h-192zM1491 1249v234h176v-234h-176z" />
    </font>
</defs>
</svg>
