<?xml version="1.0" standalone="no"?>
<!DOCTYPE svg PUBLIC "-//W3C//DTD SVG 1.1//EN" "http://www.w3.org/Graphics/SVG/1.1/DTD/svg11.dtd" >
<svg xmlns="http://www.w3.org/2000/svg" xmlns:xlink="http://www.w3.org/1999/xlink" version="1.1">
<metadata>
Created by FontForge 20170731 at Mon Jun 17 20:40:27 2019
 By Aleksey,,,
Copyright (c) 2019 by Bhavika Malhotra. All rights reserved. Desktop use is strictly prohibited.
</metadata>
<defs>
<font id="StuffedCannelloni" horiz-adv-x="1003" >
  <font-face 
    font-family="Stuffed Cannelloni"
    font-weight="400"
    font-stretch="normal"
    units-per-em="2048"
    panose-1="0 0 0 0 0 0 0 0 0 0"
    ascent="1638"
    descent="-410"
    x-height="1155"
    cap-height="1336"
    bbox="-408.44 -519.571 1929 1876"
    underline-thickness="0"
    underline-position="0"
    unicode-range="U+0020-E819"
  />
<missing-glyph horiz-adv-x="1079" 
d="M102 0v1434h875v-1434h-875zM160 1393l379 -633l381 633h-760zM514 717l-369 614v-1231zM541 674l-379 -631h758zM565 717l371 -621v1239z" />
    <glyph glyph-name="uniE700" unicode="It" horiz-adv-x="1024" 
d="M291 254q2 -20 6 -59l25 12q22 12 33 0q26 -26 46 -48q12 -13 31 -41q16 -24 12 -42t-27 -30q-54 -34 -126 -47q-84 -13 -139 -12q-79 5 -135 22q-22 7 -27 35q-1 16 0 31q14 66 51 102q12 13 35 8q28 -6 33 -4v25q0 -3 0 4t-0.5 28.5t-1 49t-1 73t-1.5 94.5
q-3 179 -7 536q-3 270 -3 278q-76 0 -84 8q-7 5 -8 16q-18 91 -8 148q5 12 51 12h289q35 0 42 -27q19 -58 3 -117q-8 -39 -41 -39h-57q-11 -59 -6 -470q4 -411 15 -546zM1016 1085l-4 -4q-16 -31 -33 -30q-18 0 -34 -1t-36 -1h-37h-45h-38q0 -39 -1 -114t-1 -132
q0 -52 -1 -93t-1 -94q0 -47 -4 -199t-4 -202v-12v-4v2v2v4v4v6v19q0 -46 -1 -84t-1 -85q0 -28 -26 -40q-63 -29 -134 3q-29 12 -26 43v34q0 18 2 32q10 97 10 420q0 52 1 94t1 96l-2 305q-6 0 -9 1t-6 1h-203q-27 0 -39 28q-7 18 -9 35q-11 55 12 102q12 23 39 21
q75 0 333 2q195 2 240 -3q44 -4 55 -27q12 -32 12 -70q0 -40 -10 -59z" />
    <glyph glyph-name="uniE701" unicode="Po" horiz-adv-x="1202" 
d="M348 496l2 2q-16 -6 -51 -15q-11 -3 -28.5 -7t-22.5 -6q0 -239 35 -350q11 -34 20 -54q7 -20 0 -36q-8 -17 -19 -24q-46 -46 -101 -53q-29 -2 -42 22q-25 42 -43 115q-12 44 -24 133q-20 198 -11 381q10 173 27 295q33 210 57 311q5 21 41 156q8 33 42 33q58 2 111 -31
q11 -6 22 -4q51 14 123 21q183 20 314 -58q133 -78 137 -232q2 -97 -55 -203q-70 -128 -207 -231q-149 -113 -327 -165zM264 788h-1q-7 -82 -9 -123q38 0 126 39t140 74q109 76 172 160q50 66 60 127q14 86 -82 123q-58 23 -168 14q-74 -8 -158 -39q-20 -6 -23 -22
q-6 -41 -16 -97q-16 -86 -18 -97q-18 -119 -23 -159zM749 -59h-1q-83 6 -170 41q-122 51 -163 159q-40 108 21 235q34 69 119 127q102 70 239 78q136 7 249 -48q113 -56 144 -157q35 -119 -25 -225q-60 -107 -174 -162q-114 -56 -239 -48zM969 156l-2 -3q47 34 65 85
q18 53 -10 97q-56 73 -157 86q-102 13 -192 -30t-111 -123q-10 -40 3 -75q13 -34 44 -51q76 -57 180 -49q103 7 180 63z" />
    <glyph glyph-name="uniE702" unicode="Th" horiz-adv-x="1353" 
d="M154 1249v-3q-198 0 -273 -14q-11 -2 -33 -3t-33 -3q-17 -2 -26 12t-9 45q0 81 4 93q4 26 36 33q43 12 191 21q154 9 245 8l156 -4q140 -2 231 -6t126 -9q31 -4 47 -4q19 0 36 -10q18 -11 18 -30q-4 -85 -21 -117q-25 -37 -48 -31q-21 7 -187 14q-168 8 -271 9
q-4 -165 -4 -233v-252q0 -67 -1 -120t-1 -118v-79v-94v-77q1 -121 0 -238q0 -35 -31 -47q-61 -25 -121 0q-31 12 -33 47v84v166q0 93 2 165q2 41 0 122t0 122q2 40 0 123t0 123v305zM764 1084l-5 -2q-41 -252 -57 -438q50 70 114 103q63 33 126 27q64 -6 124 -37
q62 -32 111 -91t85 -133q35 -72 49 -163q13 -88 1 -182q-18 -137 -31 -180q-6 -20 -24 -27q-1 0 -19 -2t-19 -2q-59 0 -95 27q-31 25 -22 55q0 4 24 139q18 110 -22 225q-41 117 -106 176q-51 35 -102 9q-51 -25 -96 -131q-44 -103 -64 -254q-2 -24 -2 -158q0 -31 -26 -43
q-16 -10 -61 -19t-57 -6q-23 0 -33 19t-10 39q-17 79 -25 168q-8 98 -8 249q0 377 64 649q1 10 23 16t48 5q27 -2 54 -6q28 -5 45 -13q17 -9 16 -19z" />
    <glyph glyph-name="uniE703" unicode="an" horiz-adv-x="942" 
d="M123 -72l4 -4q11 518 21 576h6q7 1 21.5 1.5t31.5 0.5q57 2 111 -3q55 -5 62 -19q185 -236 274 -300q56 775 58 855q0 7 47 21q49 14 87 17q40 3 46 -11q0 -4 -45 -535q-45 -534 -41 -566q1 -13 -15.5 -22t-51.5 -15q-68 -12 -88 8q-61 52 -99 90q-37 37 -58 61t-78 90
q-58 67 -124 139q10 -142 3 -378zM479 862v-4q-55 37 -163 -3q-107 -40 -115 -105q29 -23 84 -17q47 5 99 27t79 54q28 37 16 48zM24 715l-1 -5q-7 40 6 87q22 100 146 171q122 70 248 61q14 -2 53 -9q-20 100 -66 171q-45 76 -115 46q-71 -30 -81 -129v-26q0 -24 -4 -39
q-14 -31 -60 -36q-38 -1 -63 6q-35 11 -30 90q5 81 43 150q67 118 176 141q108 23 203 -48q95 -70 132 -198q59 -213 -12 -495q-26 -98 -64 -99q-104 0 -114 10q-17 10 -9 36q-78 -33 -166 -33q-79 0 -129 31q-77 45 -93 117z" />
    <glyph glyph-name="uniE704" unicode="as" horiz-adv-x="1536" 
d="M633 -96l-3 1q-35 0 -50 43q-15 44 -8 87q8 44 27 44q515 29 654 153q84 74 21 174q-27 47 -130 120q-104 74 -201 153t-120 150q-33 109 39 220q56 84 172 120q117 36 207 -9q31 -27 30 -70t-23 -75q-18 -29 -33 -39t-25 -9t-28 9t-31 9q-34 4 -70 -15q-36 -20 -36 -45
q0 -27 10 -48q11 -23 39 -47q33 -28 51 -41q30 -22 72 -50l81 -54q160 -113 210 -249t-24 -258q-73 -121 -255 -184q-257 -90 -576 -90zM699 302h-1q-16 -56 -30 -82q-13 -25 -33 -25q-116 0 -129 10q-4 9 -8 17q-2 3 6 21t9 24q-85 -59 -223 -59q-85 0 -150 37
q-82 46 -100 131q-8 44 4 94q18 65 68 115q71 71 149 106q131 59 243 47q14 -2 39 -6q17 -3 35 -6l4 14q-26 124 -81 215q-40 66 -101 69q-60 3 -108 -49q-48 -53 -54 -130v-36q0 -33 -4 -38q-11 -29 -58 -33q-40 -4 -69 6q-32 10 -25 100q8 90 48 168q55 101 144 142
q88 40 174 18t159 -99q74 -77 107 -186q75 -263 -15 -585zM567 525h3q2 19 -7 26t-38 18q-31 11 -99 3q-70 -10 -127 -45q-53 -31 -72 -57q-33 -39 -24 -61q9 -23 36 -30q27 -8 74 -6q53 2 107 24q82 33 120 78q25 31 27 50z" />
    <glyph glyph-name="uniE705" unicode="at" horiz-adv-x="1210" 
d="M684 135l1 1q-16 -56 -30 -82q-13 -25 -33 -25q-113 0 -129 10q-12 4 0 31q12 26 10 33q-85 -59 -228 -59q-85 0 -149 37q-82 46 -100 131q-10 52 9 111q20 59 60 98q83 83 190 123q108 40 204 30l39 -6t33 -6l4 14q-26 124 -81 215q-40 66 -101 69q-60 3 -108 -49
q-48 -53 -54 -130v-36q0 -33 -4 -38q-11 -29 -57 -33q-40 -4 -69 6q-33 14 -24 101q9 86 50 165q74 137 195 161q122 24 231 -57q110 -81 155 -230q76 -262 -14 -585zM544 388l2 1q-44 31 -133 19q-71 -11 -127 -46q-52 -32 -72 -57q-39 -61 -12 -82t99 -15q53 2 107 24
q82 33 118 78q50 62 18 78zM1306 1223l1 3q0 -101 -43 -102l-168 2q0 -6 -1 -9t-1 -9t-3 -67q-2 -43 -7 -264q-4 -203 -9 -519q0 -46 -1 -84t-1 -84q0 -29 -27 -41q-66 -28 -133 3q-27 12 -26 45q0 4 2 32t2 35q0 69 7 474t7 462q0 7 -1 12t-1 12q-5 0 -7 1t-5 1h-195
q-20 2 -65 0t-68 0q-38 1 -49 66q-10 55 12 100q11 20 37 21q128 0 314 -1t287 -1q21 0 43 -1t43 -1q31 0 43 -27q15 -31 13 -59z" />
    <glyph glyph-name="uniE707" unicode="bb" horiz-adv-x="1830" 
d="M1198 713l-2 2q-16 -66 6 -178q6 -13 33 -36q26 -22 65 -42q42 -22 81 -38q41 -17 87 -28q44 -11 81 -12t63 14t33 45q11 62 -141 156t-306 117zM1227 1247l1 -6q-32 -115 -49 -368q102 2 237 -49q136 -51 258 -159q122 -109 134 -238q12 -121 -117 -172t-253 -18
q-61 17 -132 55q-74 39 -84 55q0 -8 7 -33t7 -36t-4 -23q-39 -23 -78 -18q-37 4 -70 23q-70 82 -76 465q-6 381 53 555q6 20 51 24t84 -12t31 -45zM947 391l-3 1q-34 -90 -143 -162q-107 -71 -226 -109q-83 -26 -142 -33q-97 -12 -126 -6q-7 2 -12 -9q-18 -39 -92 -72
q-37 -16 -55 14q-116 199 -127 619t84 690q12 39 76 21q49 -17 81 -48q27 -27 14 -49q-50 -101 -69 -283q-19 -183 0 -312q142 75 249 110q111 36 225 32q99 -5 159 -31q96 -44 123 -163q27 -121 -16 -210zM772 464l-2 -2q37 91 -17 126q-54 34 -184 12q-109 -18 -213 -72
q-72 -38 -114 -87q-12 -14 -8 -66q4 -53 21 -99q43 -28 144 -10q100 18 203 65q143 68 170 133z" />
    <glyph glyph-name="uniE708" unicode="ch" horiz-adv-x="1699" 
d="M41 571l-4 -4q0 268 168 496q147 197 319 197q77 0 138 -50q74 -62 96 -168q14 -75 -4 -147q-20 -77 -57 -150q-31 -59 -84 -105q-26 -20 -55 -2q-50 28 -66 90q-8 43 4 55q51 51 72 132q21 82 -13 137q-29 41 -113 -15q-123 -76 -181 -268t-21 -358q27 -122 133 -183
q26 -15 45 -22q139 -49 264 20q124 69 187 216q0 278 50 551q33 179 77 322q17 29 59 21q42 -7 83 -44q41 -36 30 -65q-35 -103 -57 -232q-7 -47 -27 -165l-12 -86q103 98 275 98q112 0 194 -106q83 -107 116 -252q33 -147 14 -276q-18 -139 -31 -177q-6 -25 -24 -27
q-23 -4 -39 -4q-59 0 -93 27q-32 23 -24 53q0 7 25 139q20 114 -16 243q-36 131 -97 186q-51 35 -106 2q-56 -33 -105 -145q-49 -111 -67 -261q-2 -24 -2 -158q0 -31 -27 -43q-18 -11 -39 -12q-10 -2 -21 -2q-33 -11 -56 -9q-33 0 -39 41l-20 101q-155 -146 -410 -148
q-67 0 -127 25q-102 43 -180 123q-77 78 -105 190q-27 100 -27 219z" />
    <glyph glyph-name="uniE709" unicode="ck" horiz-adv-x="1699" 
d="M41 571l-4 -4q0 268 168 496q147 197 319 197q77 0 138 -50q74 -62 96 -168q20 -98 -27 -219t-120 -183q-26 -20 -55 -2q-9 5 -27 23q-32 32 -42 70q-11 39 6 53q63 64 80 170q11 57 -21 99q-16 25 -43 18q-29 -6 -69 -33q-123 -76 -181 -268t-21 -358q27 -122 133 -183
q26 -15 45 -22q139 -49 264 20q124 69 187 216q0 278 50 551q33 179 77 322q17 29 59 21q42 -7 83 -44q41 -36 30 -65q-35 -103 -57 -232q-7 -46 -27 -165l-12 -86q48 48 58 57q16 15 23 24q7 10 44 53q54 63 91 105q27 33 60 72t51 60q7 8 22 26l20 24q21 25 35 39
q16 16 28 26q18 15 24 12q5 -3 20 -1q34 -14 69 -48q35 -35 35 -52q0 -23 -6 -29q-16 -17 -42 -48t-36 -42q-34 -36 -162 -188q140 -41 216 -240t49 -386q-18 -139 -31 -177q-6 -26 -24 -27q-86 -13 -132 24q-32 23 -24 53q0 7 25 139q20 114 -16 243q-36 131 -97 186
q-68 59 -143 -15l-31 -39q-25 -26 -115 -150q-12 -56 -10 -117q1 -52 11 -144q9 -85 9 -99q0 -31 -27 -43q-16 -7 -63 -16q-44 -9 -53 -7q-33 0 -39 41l-20 101q-155 -146 -410 -148q-67 0 -127 25q-311 129 -311 532z" />
    <glyph glyph-name="uniE70A" unicode="dd" horiz-adv-x="1828" 
d="M709 1389l-2 -2q56 -56 120 -490q27 -199 -3 -489t-106 -411q-7 2 -82 12q-76 10 -88 21q-6 6 3 41q10 38 21 74q12 40 11 48q-85 -41 -147 -51q-50 -8 -75 -9q-33 -4 -54 -4q-103 0 -176 43q-97 53 -119 153q-12 54 4 110q19 70 80 138q66 72 181 127q46 22 149 48
q68 14 139 8q22 -2 48 -7q25 -5 47 -7q-2 146 -48 336t-87 273q49 28 98 42t86 -4zM633 543q-22 13 -41 18q-50 13 -123 3q-69 -11 -153 -55q-43 -22 -88 -72q-26 -27 -33 -52t15 -45q14 -8 31 -14q36 -14 96 -11q65 1 129 29q88 34 145 96q26 28 35 55q9 29 -13 48z
M1493 1337l3 -1q145 72 184 31q47 -52 101 -520q73 -715 -453 -768q-68 -6 -78 -6h-55q-115 11 -180 54q-95 67 -115 164q-8 58 10 115q27 71 90 139q77 71 195 121q73 28 160 41q85 11 144 3q11 -2 45 -9t57 -12q5 151 -33 354t-75 294zM1535 378l-2 2q78 74 27 113
q-34 19 -42 21q-45 18 -132 10q-82 -12 -163 -51q-55 -27 -99 -72q-29 -28 -38 -57q-9 -30 16 -52q7 -5 16 -9q10 -5 15 -6q49 -17 105 -18q86 5 137 25q99 28 160 94z" />
    <glyph glyph-name="uniE70B" unicode="ed" horiz-adv-x="1832" 
d="M526 25l-2 2q-131 -6 -261 94q-119 91 -186 261q-47 120 -50 287q-3 168 42 293q32 88 86 157q96 121 237 154q124 27 236 -25q127 -57 216 -188q74 -111 99 -234q6 -31 -20 -51q-48 -36 -80 -57q-22 -15 -71 -40q-41 -21 -99 -40q-119 -39 -192 -45q-91 -10 -119 -10
h-141q19 -142 86 -243q45 -72 123 -111q52 -27 113 -20q31 1 67 -63q49 -82 4 -111q-13 -8 -32 -8zM739 866v3q-10 21 -36 70q-34 65 -101 117q-45 34 -104 45q-80 12 -146 -37q-59 -45 -93 -115q-38 -81 -49 -177q20 -5 72 -7q50 -2 62 0q98 8 143 15q172 27 252 86z
M1493 173l2 -5q-6 -34 -10 -52q-5 -24 -15 -61q-3 -10 -5.5 -20t-4.5 -19.5t-3 -12.5q-10 -45 -61 -39q-68 8 -105 45q-20 20 -14 41q2 9 6 23q7 25 8 27q3 12 3 22v6q-15 -6 -27 -13q-17 -9 -30 -15l-26 -12q-145 -66 -297 -57q-125 6 -197 86q-58 66 -63 152q-4 85 42 165
q66 117 193 199q190 123 387 106q15 -2 41 -6q27 -5 39 -6v16q0 307 -62 445q-12 28 15 51q21 19 96 53q6 2 16 2q20 0 26 -3q7 -3 14 -21q49 -114 58 -181l18 -129q18 -101 1 -378q-16 -274 -45 -409zM1333 422v-3q17 29 18 78q0 25 -29 37q-36 16 -60 16q-66 0 -101 -8
q-163 -41 -254 -141q-119 -131 -21 -177q52 -27 162 -2q124 32 201 102q55 46 84 98z" />
    <glyph glyph-name="uniE70C" unicode="ee" horiz-adv-x="1343" 
d="M539 25l-1 2q-132 -6 -263 94q-119 91 -186 261q-47 120 -50 287q-3 168 42 293q32 88 86 157q96 121 238 154q123 27 235 -25q127 -57 216 -188q74 -111 99 -234q6 -31 -20 -51q-48 -36 -80 -57q-22 -15 -71 -40q-41 -21 -99 -40q-119 -39 -192 -45q-93 -10 -119 -10
h-142q19 -142 86 -243q45 -72 123 -111q52 -27 113 -20q32 1 69 -63q49 -82 4 -111q-13 -8 -33 -8zM753 866v3q-13 28 -37 70q-34 65 -101 117q-45 34 -104 45q-80 12 -144 -37q-60 -46 -95 -115q-38 -81 -49 -177q20 -5 72 -7q50 -2 62 0q97 7 144 15q172 27 252 86z
M1277 365l-1 -3q2 -51 -75 -95q-78 -44 -175 -62q-99 -18 -173 -9l-2 -3q25 -76 79 -115t117 -21t106 100q23 29 57 20q35 -9 59 -45t6 -65q-123 -186 -295 -174t-264 215q-43 110 -43 224q0 112 63 208t169 120q119 28 243 -75q125 -104 129 -220zM1106 395l1 -1
q-51 94 -128 102t-110 -78q-18 -46 -24 -78l2 -2q41 0 51 2q35 4 41 5q11 1 25.5 3t16.5 2q88 26 123 43z" />
    <glyph glyph-name="uniE70D" unicode="en" horiz-adv-x="921" 
d="M127 -47l-5 1q11 499 21 563q14 0 34 1t56 1t57 -1q31 -1 52 -6q21 -4 27 -12q15 -17 65 -84q42 -57 78 -103q23 -30 68 -78q43 -46 72 -65q1 22 6.5 97.5t13 184t15.5 225.5q26 381 23 381q0 6 50 17q52 11 66 11l19 5q20 2 35 0q15 -1 15 -9q0 -10 -12 -271
q-16 -348 -23 -523q-10 -262 -9 -289q2 -20 -91 -39q-93 -20 -110 -3q-69 61 -101 94q-25 26 -109 117q-80 86 -156 164q10 -141 3 -373zM642 1027l-3 -2q-6 -78 -163 -115q-156 -37 -276 -10q17 -77 67 -123q51 -46 114 -34q64 12 110 87q23 33 62 18q40 -15 56 -52t-3 -70
q-91 -112 -203 -139q-110 -27 -207 38t-143 204q-57 172 14 340q71 169 234 191q121 16 235 -101q114 -116 106 -232zM469 1074l-1 1q-41 98 -115 113q-75 15 -115 -67q-20 -41 -30 -72q38 -5 51 -6q57 0 84 3q94 17 126 28z" />
    <glyph glyph-name="uniE70E" unicode="es" horiz-adv-x="1529" 
d="M856 35l-4 -1q-273 -72 -472 17q-197 88 -292 329q-47 120 -50 287q-3 168 42 293q32 88 86 157q96 121 238 154q123 27 235 -25q127 -57 216 -188q73 -111 99 -234q6 -31 -20 -51q-48 -36 -80 -57q-22 -15 -71 -40q-41 -21 -99 -40q-118 -39 -192 -45q-91 -10 -119 -10
h-141q19 -142 86 -243q63 -98 165 -140t193 -33q90 9 174 50q22 0 36 -41t6 -86q-8 -46 -36 -53zM752 863v2q-63 127 -138 187q-45 34 -104 45q-80 12 -144 -37q-124 -94 -144 -291q20 -5 72 -7q50 -2 62 0q98 8 144 15q172 27 252 86zM739 325l-1 -3q-28 4 -36 45
q-7 39 5 76q12 36 29 34q126 -16 273 5q146 21 213 64q88 57 49 164q-18 50 -102 135q-91 92 -161 175q-76 90 -84 158q-12 106 71 192q66 68 174 81t186 -42q25 -25 16 -64q-9 -38 -32 -61q-22 -22 -35 -30q-12 -8 -18 -6t-24 12q-21 12 -34 17q-32 12 -70 -1
q-39 -14 -45 -42q-4 -24 2 -49q6 -24 27 -51t39 -45q4 -4 60 -58q41 -39 67 -64q128 -128 152 -262q24 -135 -61 -234q-86 -100 -264 -128q-257 -41 -396 -18z" />
    <glyph glyph-name="uniE70F" unicode="et" horiz-adv-x="1230" 
d="M1290 1200l2 -5q-2 -5 -6 -6q-6 -2 -10 -3t-12 -1q-10 0 -18 1t-22 1q-16 -1 -60 0q-29 1 -61 1q0 -12 -9 -435t-9 -481q0 -47 -1 -84t-1 -81q0 -29 -26 -41q-66 -28 -133 3q-27 12 -27 45q0 4 2 32t2 33q0 23 3 114q3 82 1 165q0 194 4 297q6 146 4 188v-2v0v0v2v2v2v2
v2v2v2v2v3v2v2v2v2v2v2v2v2v2v2v2v2v2v2v2v2v2v2v2v2v3v4v2v2v2v2v2v4v2v2v2v2v4v2v2v2v4v3v2v4v2v2v4v2v2v4v2v4v2v2v4v2v5v2v2v4v2v4v2v4v2v4v2v4v2v4v2v5v2v4v2v4v2v4v2v4v2v4v2v4v3v18v0v0v0h-1v0h-1v0h-1v0h-1h-1h-1h-1h-1h-1h-1h-1h-1h-1h-1h-1h-1h-1h-1h-1h-1h-1h-1
h-1h-1h-1h-1h-1h-1h-1h-1h-1h-1h-1h-1h-1h-1h-1h-1h-1h-10q-68 0 -103 1t-54 1q-5 0 -13.5 -0.5t-24.5 -1t-28 -0.5q-49 -1 -69 3q-38 0 -49 66q-10 55 12 100q11 20 36 20q134 0 333 -1t306 -1q15 0 23 -1t24 -1q31 0 43 -26q35 -80 -10 -150zM772 648l-5 1
q-7 -89 -207 -132q-201 -44 -336 -11q5 -142 64 -216q60 -75 147 -58q87 16 171 119q26 32 66 14t57 -54q16 -35 -2 -67q-107 -135 -240 -168q-134 -33 -247 43q-114 76 -169 244q-37 95 -28 210q9 112 44 213q34 98 110 171q75 72 174 87q95 12 192 -49q98 -62 156 -160
q59 -100 53 -187zM595 703l-2 -3q-34 88 -95 132q-60 43 -122 28q-61 -15 -99 -89q-29 -59 -41 -108q62 -6 78 -6q78 0 107 4q129 17 174 42z" />
    <glyph glyph-name="uniE710" unicode="ff" horiz-adv-x="1294" 
d="M676 1153l-5 2q17 -90 -51 -231q-14 -32 -22 -36q-9 -4 -34 0q-38 6 -79 26q-39 20 -39 45q0 13 24 68q24 56 20 84q-8 59 -60 66q-57 6 -117 -82q-59 -87 -82 -186q-72 -295 -7 -435q220 63 231 74q20 20 47 -12q47 -58 41 -129q-1 -26 -30 -37q-11 -4 -41 -13.5
t-46 -14.5t-31.5 -10t-25 -8t-12.5 -4q-9 -2 -29 -9q-21 -7 -33 -12q19 -49 27 -65q10 -20 30 -50q22 -33 52 -63q1 -1 15 -13q10 -9 10 -10q0 -3 4 -12q4 -10 -2 -18q-6 -23 -18 -41q-37 -59 -81 -66q-25 -4 -37 8q-181 181 -247 456q-66 274 17 555q46 155 129 256
q84 104 201 119t206 -65q58 -51 75 -137zM1160 1165l-6 -5q-7 4 -15 4q-66 8 -122 -84q-55 -90 -82 -219q-27 -127 -33 -258q-6 -130 32 -204q9 3 81 26l96 30q41 12 54 18q27 11 69 -54t20 -87q-17 -17 -106 -54t-149 -51q7 -25 15 -46q7 -18 23 -39q13 -17 20 -24
q1 -1 4.5 -5t10 -10.5l13.5 -13.5l13.5 -13.5t10 -10.5t4.5 -5q33 -35 -40 -77t-117 -24q-7 2 -11 6q-24 24 -131 219l-250 -88q-22 -8 -48 33t-30 81t18 54l254 84q-78 302 16 630q45 155 129 256q74 89 171 113q98 24 182 -22q20 -18 5 -57q-15 -38 -50 -75
q-34 -36 -51 -28z" />
    <glyph glyph-name="uniE711" unicode="is" horiz-adv-x="1058" 
d="M176 -96l-5 1q-35 0 -50 43q-15 44 -8 87q8 44 27 44q514 29 654 153q84 74 20 174q-27 47 -130 120q-104 74 -201 153t-120 150q-33 109 39 220q56 84 172 120q117 36 207 -9q31 -27 30 -70q-1 -44 -21 -75q-18 -29 -34 -39t-27 -9q-10 1 -28 9t-30 9q-35 5 -71 -15
t-36 -45q0 -24 11 -48q11 -23 39 -47q33 -28 51 -41q32 -23 73 -50q51 -33 81 -54q161 -113 210 -249t-24 -258q-73 -121 -253 -184q-256 -90 -576 -90zM226 853q-16 -157 -4 -355q12 -194 44 -299q-11 0 -25 -1t-44 -1h-47q-24 0 -41 3t-18 7q-7 13 -21 93q-13 79 -24 227
q-10 140 -10 300q0 47 10 78q14 27 54 23t84 -30t42 -45zM177 1179l1 -2q43 0 73 -32q30 -31 28 -72q1 -40 -30 -70t-75 -30q-40 0 -72 32t-30 71q1 42 32 73q30 30 73 30z" />
    <glyph glyph-name="uniE712" unicode="it" horiz-adv-x="839" 
d="M840 1087l-3 -1q-74 0 -191 -4l-2 -393q0 -2 -0.5 -17t-1 -46.5t-0.5 -65.5q-2 -118 0 -153q2 -84 2 -189v-168q0 -29 -26 -41q-68 -29 -134 0q-27 12 -26 43q0 19 1 33t1 34v229v80v121v81v58v70v61q-2 78 -2 237q0 7 -1 12t-1 12h-2h-2h-2h-2h-2h-3h-2h-2h-2h-2h-2h-2
h-2h-2h-2h-2h-2h-2h-2h-2h-2h-4h-2h-2h-2h-3h-4h-2h-2h-4h-2h-2h-4h-2h-4h-2h-2h-4h-2h-5h-2h-4h-4h-2h-4h-2h-4h-4h-2h-4h-4h-2h-5h-4h-4h-2h-4h-4h-4h-4h-2h-4h-4h-4h-5h-4h-18q-11 2 -66 0q-15 0 -31 -0.5t-24.5 -1t-11.5 -0.5q-37 0 -49 47t3 93q15 47 46 47l176 2
q176 1 354 3l178 2q33 0 43 -25q18 -37 12 -99q-6 -61 -39 -61zM249 652l-2 -2q-16 -157 -4 -355q12 -196 45 -299q-11 0 -25 -1t-44 -1h-47q-24 0 -41 3t-18 7q-28 43 -46 342q-18 297 2 358q14 27 54 23q41 -5 84 -30t42 -45zM198 976l-3 -2q43 0 73 -32q30 -31 28 -72
q2 -40 -28 -70t-73 -30q-41 0 -72 31t-30 72q1 42 32 73q30 30 73 30z" />
    <glyph glyph-name="uniE713" unicode="la" horiz-adv-x="1193" 
d="M948 41l-4 -5q-7 -19 -20 -24q-11 -4 -44 -4h-488q-48 0 -87 -1q-59 -1 -87 -3q-46 0 -63 4q-14 0 -44 132q-29 128 -34 180l-12 129q-18 187 6 483q24 295 80 351q18 33 55 23q59 -14 98 -69q14 -28 8 -45q-22 -40 -39 -131q-33 -181 -27 -438q6 -259 43 -426q25 0 71 1
t95 1q421 0 447 2q39 1 54 -54q15 -54 -8 -106zM1100 431l-7 -2q-16 -56 -30 -82q-13 -25 -34 -25q-113 0 -129 10q-11 4 -1 31q11 27 9 33q-70 -50 -181 -58t-191 36q-82 46 -102 131q-7 43 6 94q39 142 197 213q157 70 338 43q-14 125 -75 230q-40 66 -101 69
q-60 3 -108 -49q-48 -53 -54 -130v-36q0 -33 -4 -38q-11 -27 -54 -33q-44 -6 -75 7q-33 11 -24 99t50 167q55 101 144 142q88 41 174 18t159 -99q74 -77 107 -186q76 -262 -14 -585zM952 681l1 1q-44 31 -134 19q-70 -10 -127 -45q-92 -53 -98 -113q-4 -13 15 -24
q19 -10 47 -15q27 -5 53 -3q53 1 105 24q82 33 120 78q50 61 18 78z" />
    <glyph glyph-name="uniE714" unicode="ld" horiz-adv-x="1308" 
d="M1196 158l2 -2q-12 -45 -61 -39q-46 6 -86 30q-41 24 -33 56q6 24 20 104q15 85 15 101q-15 -6 -27 -13q-16 -9 -30 -15q-9 -4 -25 -12q-90 -41 -186 -56q-41 -6 -112 -2q-125 6 -197 86q-58 66 -63 152t42 165q119 213 408 291q81 20 170 14q15 -2 41 -6q27 -4 39 -6
q0 99 -10 146q-11 51 -51 146q-12 28 14 51q19 17 55 36q38 20 58 20q21 0 26 -3q6 -4 14 -22q92 -237 83 -577q-9 -344 -106 -645zM1089 703v-1q18 32 18 67q0 36 -29 48q-38 17 -60 18q-218 0 -354 -150q-28 -29 -48 -67q-21 -38 -16 -66q6 -31 42 -46q37 -15 77 -11
q58 -4 146 29q86 33 141 80q55 49 83 99zM917 11h-525q-48 0 -87 -1q-59 -2 -87 -3q-46 0 -63 4q-19 0 -48 158q-30 163 -41 282q-14 141 -3 356t42 351q26 103 48 125q25 31 66 21q40 -10 75 -47q35 -36 21 -65q-22 -40 -39 -131q-34 -161 -30 -432t45 -435q23 -4 94 -1
q69 3 73 3q421 0 447 2q25 2 38.5 -17.5t16.5 -60.5q6 -78 -24 -105q-8 -6 -19 -4z" />
    <glyph glyph-name="uniE715" unicode="le" horiz-adv-x="1183" 
d="M1145 895l-5 -2q-8 -89 -207 -132q-201 -44 -336 -11q5 -142 64 -216q60 -75 147 -58q87 16 171 119q26 32 65 15q40 -17 56 -52q17 -36 -1 -69q-107 -135 -238 -168t-246 44t-170 243q-37 97 -28 212q9 113 44 212q34 97 110 171q75 73 173 87q94 14 192 -48t156 -160
q59 -100 53 -187zM968 946l-1 -1q-35 90 -94 132q-60 42 -121 27t-102 -89q-28 -53 -41 -109q61 -6 78 -6q78 0 107 4q129 16 174 42zM942 38l-4 -5q-7 -19 -20 -24q-11 -4 -44 -4h-488q-48 0 -87 -1q-59 -2 -87 -3q-46 0 -63 4q-14 0 -44 132q-29 128 -34 180l-12 129
q-18 188 6 483t80 351q18 33 55 23q59 -14 98 -69q14 -28 8 -45q-22 -40 -39 -131q-33 -182 -27 -438q6 -259 43 -426q25 0 71 1t95 1q421 0 447 2q39 2 54 -54q15 -54 -8 -106z" />
    <glyph glyph-name="uniE716" unicode="li" horiz-adv-x="864" 
d="M647 956l-1 -2q-14 -160 -3 -345q10 -183 44 -288q-11 0 -25 -1t-44 -1h-47q-25 0 -41 3t-18 8q-7 13 -21 89q-13 75 -24 216q-10 134 -10 295q0 47 10 78q14 27 54 23q41 -5 84 -30t42 -45zM597 1280l-3 -2q43 0 73 -31t28 -72q2 -41 -28 -71t-73 -30q-41 0 -72 31
q-32 31 -30 72q1 42 32 73q30 30 73 30zM819 10l-8 1q-27 -11 -428 -3q-48 0 -87 -1q-58 -1 -87 -3q-46 0 -63 4q-19 0 -48 158q-30 163 -41 282q-14 141 -3 356q10 214 42 351q26 103 48 125q26 32 66 21q40 -10 75 -47q35 -36 21 -65q-22 -40 -39 -131q-35 -160 -30 -432
t45 -435q23 -4 94 -1q69 3 73 3q330 0 356 2q37 5 48 -39q10 -43 -3 -91t-31 -55z" />
    <glyph glyph-name="uniE717" unicode="ll" horiz-adv-x="1232" 
d="M915 14h-525q-48 0 -87 -1q-59 -1 -87 -3q-46 0 -63 4q-19 0 -48 158q-30 163 -41 282q-14 141 -3 356q11 214 42 351q26 103 48 125q25 32 66 21q40 -10 75 -47q35 -36 21 -65q-22 -40 -39 -131q-34 -160 -30 -432t45 -435q23 -4 94 -1q69 3 73 3q421 0 447 2
q25 2 38.5 -17.5t16.5 -60.5q6 -78 -24 -105q-8 -6 -19 -4zM1156 418h-1q-11 -22 -90 -27q-88 -5 -361 -5h-123q-10 0 -18 -1t-20 -1q-4 0 -16 2q-8 1 -10 8q-78 213 -70 462q7 246 71 429q14 20 57 20t84 -21q40 -21 27 -46q-18 -38 -36 -142q-18 -105 -24 -249
q-6 -143 26 -275q170 -23 459 4q41 4 54 -51q14 -56 -9 -107z" />
    <glyph glyph-name="uniE718" unicode="lli" horiz-adv-x="1304" 
d="M915 14h-525q-48 0 -87 -1q-59 -1 -87 -3q-46 0 -63 4q-19 0 -48 158q-30 163 -41 282q-14 141 -3 356q11 214 42 351q26 103 48 125q25 32 66 21q40 -10 75 -47q35 -36 21 -65q-22 -40 -39 -131q-34 -160 -30 -432t45 -435q23 -4 94 -1q69 3 73 3q421 0 447 2
q25 2 38.5 -17.5t16.5 -60.5q6 -78 -24 -105q-8 -6 -19 -4zM935 395l-4 1q-12 -27 -105 -30q-98 -3 -269 10q-12 0 -24 -1q-18 -1 -28 0q-11 1 -12 9q-53 126 -65 297q-12 175 7 326t59 269q14 20 57 20t84 -21t29 -45q-17 -36 -37 -142q-19 -102 -25 -249q-6 -144 27 -275
q64 -8 101 -11q44 -3 72 -3q33 0 43 1q20 2 29 3q4 0 7.5 0.5t5.5 1.5h2q41 2 56 -55t-10 -106zM1203 794v-2q-16 -157 -4 -355q12 -193 44 -300q-11 0 -25 -1t-44 -1h-47q-25 0 -41 3q-17 3 -18 7q-8 13 -21 93q-13 79 -24 227q-10 140 -10 301q0 47 10 78q14 27 54 23
q39 -4 84 -29q44 -24 42 -44zM1154 1117l1 -2q43 0 73 -31t28 -72q2 -41 -30 -71t-75 -30q-41 0 -72 31q-31 32 -30 72q1 42 32 73q30 30 73 30z" />
    <glyph glyph-name="uniE719" unicode="llo" horiz-adv-x="1607" 
d="M915 14h-525q-48 0 -87 -1q-59 -1 -87 -3q-46 0 -63 4q-19 0 -48 158q-30 163 -41 282q-14 141 -3 356q11 214 42 351q26 103 48 125q25 32 66 21q40 -10 75 -47q35 -36 21 -65q-22 -40 -39 -131q-34 -160 -30 -432t45 -435q23 -4 94 -1q69 3 73 3q421 0 447 2
q25 2 38.5 -17.5t16.5 -60.5q6 -78 -24 -105q-8 -6 -19 -4zM1134 408l-3 1q-11 -26 -85 -30q-67 -4 -333 -4h-156q-10 0 -18 -1t-21 -1q-6 0 -16 2q-7 1 -9 8q-53 126 -65 297q-12 175 7 326t59 269q14 20 57 20t84 -21t29 -45q-17 -36 -37 -142q-19 -102 -25 -249
q-6 -144 27 -275q170 -23 459 4q41 2 56 -54t-10 -105zM1401 746l-1 -3q-4 0 -15 -6q-12 -7 -16 -8q-124 -41 -217 -35q-94 6 -172 39q-72 31 -141 117q-33 46 -39 74q-29 110 31 217q32 59 123 131q20 16 69 42q100 49 222 43q64 -2 131 -21q91 -23 185 -120q31 -34 45 -72
q27 -73 4 -168q-28 -108 -107 -166q-74 -58 -102 -64zM1134 848q96 -6 192 33q2 1 9 5t20 12t27 16q47 28 70 95q14 41 -15 93q-14 29 -45 47q-32 26 -129 43q-74 14 -165 -25q-12 -5 -66 -39t-70 -94q-12 -49 2 -78q18 -34 47 -57q60 -47 123 -51z" />
    <glyph glyph-name="uniE71A" unicode="lls" horiz-adv-x="1732" 
d="M915 14h-525q-48 0 -87 -1q-59 -1 -87 -3q-46 0 -63 4q-19 0 -48 158q-30 163 -41 282q-14 141 -3 356q11 214 42 351q26 103 48 125q25 32 66 21q40 -10 75 -47q35 -36 21 -65q-22 -40 -39 -131q-34 -160 -30 -432t45 -435q23 -4 94 -1q69 3 73 3q421 0 447 2
q25 2 38.5 -17.5t16.5 -60.5q6 -78 -24 -105q-8 -6 -19 -4zM974 408l-2 2q0 -1 2 -13t-12 -14h-86q-133 4 -295 4q-10 0 -18 -1t-20 -1q-4 0 -16 2q-8 1 -10 8q-78 213 -70 462q7 246 71 429q14 20 57 20t84 -21q40 -21 27 -46q-18 -38 -36 -142q-18 -105 -24 -249
q-6 -143 26 -275q63 -8 102 -11q46 -3 70 -3h41q16 0 26 -2q8 -2 14 -6q27 -23 48 -64q21 -42 21 -79zM1679 1102l5 -1q2 -37 6 -81q-6 -50 -6 -54q0 -20 -21 -30q-17 -8 -49 -12q-38 -6 -80 8q-37 12 -31 53q6 47 -4 98q-7 41 -57 84q-65 55 -152 49q-90 -6 -151 -73
q-44 -49 -76 -147q-14 -51 -8 -105q7 -85 71 -152q56 -59 142 -105q33 -18 164 -93q23 -12 104 -76q42 -34 60 -55q51 -57 78 -150q22 -82 -24 -162q-71 -119 -210 -143q-124 -22 -235 39q-110 61 -154 173q-11 29 9 48q28 29 81 42q12 4 42 4q27 0 35 -24q10 -29 27 -48
q37 -41 102 -54q49 -11 87 6q32 13 54 42q14 18 3 47q-18 50 -68 90q-61 46 -147 96q-146 83 -170 98q-54 34 -114 98q-24 28 -49 63q-53 77 -69 183q-19 139 45 283q40 88 98 144q97 91 222 111q221 32 365 -132q68 -78 75 -162z" />
    <glyph glyph-name="uniE71B" unicode="lo" horiz-adv-x="1058" 
d="M958 567v-1q-45 -78 -108 -135q-98 -92 -216 -83t-202 120q-50 63 -66 162q-20 122 30 249q50 129 148 206q99 78 206 64q124 -18 197 -120q74 -103 71 -223q-3 -122 -60 -239zM858 859l-1 -1q-13 56 -54 97t-90 30q-88 -18 -145 -106t-55 -187q2 -100 66 -152
q34 -28 72 -29q40 -2 65 16q83 39 122 140t20 192zM914 12h-525q-48 0 -87 -1q-58 -1 -87 -3q-46 0 -63 4q-19 0 -48 158q-30 163 -41 282q-14 141 -3 356q10 214 42 351q26 103 48 125q26 32 66 21q40 -10 75 -47q35 -36 21 -65q-22 -40 -39 -131q-35 -160 -30 -432
t45 -435q23 -4 94 -1q69 3 73 3q421 0 447 2q25 2 38.5 -17.5t16.5 -60.5q6 -78 -24 -105q-8 -6 -19 -4z" />
    <glyph glyph-name="uniE71C" unicode="lt" horiz-adv-x="946" 
d="M905 1239l-5 1q0 -50 -10 -70q-1 -1 -3 -5t-4.5 -7.5t-4.5 -7.5q-6 -10 -21 -10q-16 0 -28 -1t-30 -1h-119v-15q0 -69 -1 -168t-1 -171q0 -52 -1 -93t-1 -94q0 -38 -1 -58t-1 -61l-4 -100q0 -29 -27 -41q-63 -28 -133 3q-10 4 -15 9q-4 4 -7 18q-3 13 -3 28q0 4 2 46
q1 31 3 66t3 93q1 39 1 125v387q0 7 -1 13t-1 13q-6 0 -9 1t-6 1h-34h-53h-35q-24 2 -39 2q-30 0 -48 -1t-42 -1q-27 0 -39 28q-7 18 -9 35q-10 55 12 102q10 23 39 21q57 0 168 -1t288 -1h167q29 2 41 -25q12 -29 12 -60zM835 191h1q31 -66 3 -133q-13 -32 -33 -27
q-6 1 -18 0q-2 0 -5 -0.5t-5 -1t-3.5 -0.5h-2.5h-381q-52 -4 -176 -4q-16 0 -24 -1t-16 -1h-9q-6 0 -8 1t-7 6q-13 12 -22 100q-9 89 -9 217q0 89 2 251q1 85 5 239q3 117 3 144q0 37 68 39t102 -33q4 -41 1 -153q-5 -171 -10 -317q-7 -195 -7 -303q54 0 159 1t183 1
q138 0 166 2q31 1 43 -27z" />
    <glyph glyph-name="uniE71D" unicode="lu" horiz-adv-x="1296" 
d="M393 856l-6 -8q0 90 24 208q24 119 55 181q12 27 37 27q70 0 127 -51q20 -18 8 -47q-49 -111 -63 -281t15 -275q26 -92 58 -113q34 -21 92 28q63 55 117 153q79 141 108 237q29 98 29 225q0 17 50 26q51 9 98 5q48 -5 48 -16q0 -78 -8 -182t-8 -155q0 -50 14 -252
q6 -69 25 -131q6 -21 16 -48q14 -36 14 -37l6 -18q4 -13 -2 -24q-5 -8 -6 -9q-50 -50 -112 -69q-29 -8 -42 19l-9 16q-10 30 -25 68q-19 48 -30 86q-10 36 -12 71q-1 12 -3 33t-3 33q-8 -15 -19 -30q-14 -20 -21 -27q-77 -100 -152 -148q-77 -45 -143 -43q-82 4 -141 57
q-66 57 -96 147q-13 44 -30 131q-10 56 -10 213zM942 33l-4 -5q-7 -19 -20 -24q-11 -4 -44 -4h-488q-48 0 -87 -1q-59 -1 -87 -3q-46 0 -63 4q-14 0 -44 132q-29 128 -34 180l-12 129q-18 187 6 483q24 295 80 351q18 33 55 23q59 -14 98 -69q14 -28 8 -45q-22 -40 -39 -131
q-33 -181 -27 -438q6 -259 43 -426q25 0 71 1t95 1q421 0 447 2q39 1 54 -54q15 -54 -8 -106z" />
    <glyph glyph-name="uniE71E" unicode="ly" horiz-adv-x="1280" 
d="M1202 1343l-1 2q33 4 37 -30v-66q-2 -67 -12 -137q-33 -240 -99 -399q-63 -151 -153 -236q-95 -89 -207 -106q-74 -12 -158 12q-61 17 -151 74q-25 16 -19 43q17 74 82 111q22 12 42 -2q53 -39 111 -51q70 -14 126 18q57 33 88 82q8 13 12 17q-56 -17 -102 -18
q-67 0 -129 43q-67 45 -114 138q-47 94 -66 195q-7 37 -11 112q-4 79 -9 118q-2 16 5 24.5t24 7.5l120 6q33 5 33 -30q0 -186 43 -285q82 -193 187 -147q89 40 139 228q27 109 27 229q0 28 26 33zM914 16h-525q-48 0 -87 -1q-58 -1 -87 -3q-46 0 -63 4q-19 0 -48 158
q-30 163 -41 282q-14 141 -3 356q10 214 42 351q26 103 48 125q26 32 66 21q40 -10 75 -47q35 -36 21 -65q-22 -40 -39 -131q-35 -160 -30 -432t45 -435q23 -4 94 -1q69 3 73 3q421 0 447 2q25 2 38.5 -17.5t16.5 -60.5q6 -78 -24 -105q-8 -6 -19 -4z" />
    <glyph glyph-name="uniE71F" unicode="ng" horiz-adv-x="1839" 
d="M1575 516l-8 -5l-1 -2l-5 -5l-7 -7q-10 -10 -16 -18q-3 -4 -20 -21q-18 -18 -25 -24q-2 -2 -7 -6.5t-10.5 -9t-10.5 -8.5q-18 -15 -33 -24q-4 -3 -17 -10t-21 -12q-18 -11 -44 -22q-21 -9 -48 -18t-54 -15q-43 -8 -126 -8q-124 13 -189 86q-47 51 -57 123q-14 89 43 190
q51 92 153 146t203 63t188 -3q88 -12 120 -43q0 41 -24 141t-24 119q0 11 57 31q56 19 85 19q33 0 41 -27q2 -6 45 -168q7 -30 17 -127q4 -41 4 -138q0 -391 -186 -699q-186 -307 -511 -397q-297 -80 -584 75q-7 4 -34 26q-25 20 -31 24q-16 14 -9 39q6 20 39 53
q37 37 75 49q16 6 30 -8q1 -1 4 -3q2 -2 4 -3q4 -3 10 -9q123 -84 260 -93t258 49q120 58 223 161q101 101 166 245t77 294zM1098 497l-1 -1q82 -27 189 20q54 26 98 69q46 44 50 87q2 12 0 21q-2 10 -7 15l-9 9q-2 2 -14 7q-10 4 -12 6q-50 27 -153 -10q-103 -38 -147 -96
q-73 -100 6 -127zM32 0h-6q4 176 27 678q23 503 30 554q15 0 36 1t60 1q40 0 62 -1q34 -2 56 -6q23 -5 29 -12q44 -58 139 -423q94 -363 132 -448q3 34 22 390q17 310 14 310q5 20 96 18q91 -1 91 -30q0 -2 -44 -486q-44 -478 -42 -516q-6 -12 -55 -11q-53 2 -109 10
q-60 9 -70 19q-30 89 -56 188q-27 104 -81 318q-43 170 -113 440q2 -30 -7 -241q-9 -216 -21 -468t-12 -279z" />
    <glyph glyph-name="uniE720" unicode="nn" horiz-adv-x="1853" 
d="M950 1139l2 -3q-6 18 8 32q56 56 113 70q25 4 42 -18q38 -57 76 -240q7 -45 9 -65q8 11 21 30q10 15 20 27q83 106 153 147q78 47 153 42t130 -55q63 -57 96 -149q19 -59 30 -129q11 -74 12 -150t-6 -147q-7 -69 -18 -133q-10 -62 -27 -124q-19 -70 -28 -100
q-12 -39 -27 -84q-16 -48 -17 -55q-8 -27 -35 -27q-70 0 -127 51q-22 18 -9 48q58 148 77 258q31 177 31 303q0 95 -20 186q-10 50 -36 91q-25 41 -54 30q-34 -12 -60 -35q-68 -59 -119 -150q-70 -122 -127 -355q-11 -41 -27 -123q-6 -32 -15 -102q-10 -64 -10 -123
q0 -74 2 -90q5 -27 -102 -29q-90 -2 -90 18q0 31 2 79q1 24 5 74q5 61 5 63q0 8 12 108q27 264 27 463q0 32 -10 133q-6 69 -25 131q-1 4 -11 33q-9 26 -18 48zM258 1013l-4 -7q-1 -27 12 -172q7 12 21 29t21 29q82 106 153 148q73 45 141 43q86 -5 141 -57q62 -56 97 -149
q20 -59 30 -129q16 -112 12 -213q-2 -23 -30 -234t-30 -222q-4 -45 -9 -63h-188q0 4 2 10q1 3 5 9q4 5 8 29q7 35 11 65q6 41 15 123t21 198q0 3 2 31t2 31q4 44 4 78q0 95 -20 186q-12 57 -43 102q-1 1 -3 5q-2 3 -5 5l-6 4q-12 12 -30 6q-34 -12 -60 -35
q-102 -90 -174 -259q-73 -171 -101 -351q-10 -64 -10 -123q0 -74 2 -90q5 -27 -111 -29q-92 -2 -92 18q8 85 16 155q7 66 19 185q6 65 13 184q6 115 5 219q-2 112 -9 221q18 35 94 51q40 7 59.5 -1t18.5 -30z" />
    <glyph glyph-name="uniE721" unicode="nt" horiz-adv-x="1216" 
d="M20 -18l-5 1q5 174 27 663t30 540q15 0 36 1t60 1q40 0 62 -1q32 -1 55 -6t29 -13q46 -59 140 -422t132 -447q3 34 22 390q17 309 14 309q1 12 44 18q47 7 83 8h41q0 -2 -3.5 -49.5t-13 -180t-18.5 -262.5q-35 -486 -33 -521q0 -12 -54 -15q-50 -3 -112 2q-58 4 -69 15
q-29 85 -54 183q-5 18 -32.5 124.5t-49.5 190.5l-114 435q2 -30 -7 -235q-2 -57 -8.5 -209.5t-10.5 -241.5q-11 -245 -12 -272zM917 1148v-2q0 11 -2 21q-31 -1 -120 -9t-93 -9q-18 -6 -27 15t-9 41q0 83 2 93q8 28 36 35q34 8 229 17q201 9 241 5q26 0 74 1q71 1 86 -5
q25 -4 28 -84q3 -79 -26 -84q-124 -11 -219 -13h-14v-16q0 -5 -0.5 -15.5t-1 -29t-0.5 -34.5q-1 -61 0 -94v-252v-237q0 -8 -0.5 -23.5t-1 -43.5t-0.5 -50q-1 -89 0 -135v-209q0 -33 -31 -45q-61 -25 -121 0q-34 14 -32 47v4v2v4v2v4v4v2v4v4v5v4v16q0 184 2 330v122v122
v123v123v240z" />
    <glyph glyph-name="uniE722" unicode="oa" horiz-adv-x="874" 
d="M737 -125l-1 -2q-33 -113 -69 -113q-117 0 -133 13q-14 6 -5 35q9 28 9 30l10 6l6 -4l-2 -10q-89 -43 -127 -43q-14 0 -33 -4t-28 -4q-25 -4 -42 -4q-87 0 -152 37q-86 51 -104 135q-8 48 4 98q14 59 69 117q61 66 153 108q18 8 39 15q24 9 47 14q31 7 39 10q54 14 120 8
q15 -2 38 -6q27 -5 30 -5l2 8q-27 123 -80 210q-57 96 -149 57t-102 -162v-36q0 -32 -4 -39q-13 -37 -63 -37q-51 0 -72 6q-37 12 -30 105t51 171q57 103 147 144t176 18q85 -23 162 -99q76 -76 109 -189q76 -265 -15 -588zM593 98h2q1 16 -9 25q-13 8 -33 14q-29 11 -96 3
q-64 -6 -125 -45q-55 -34 -70 -54q-22 -31 -24 -54q-4 -7 9 -12q7 -7 20 -12q47 -11 78 -9q55 2 105 24q91 41 116 75q26 33 27 45zM370 827h-2q-123 7 -226 71q-101 63 -127 159q-29 110 31 217q56 102 172 161q117 60 242 54q64 -2 131 -21q127 -33 196 -135
q69 -103 38 -227q-35 -137 -169 -213q-135 -76 -286 -66zM667 1141q25 70 -32 121q-58 52 -147 59q-90 7 -175 -21q-45 -18 -84 -54t-51 -79q-20 -80 49 -135q67 -53 161 -53t174 45t105 117z" />
    <glyph glyph-name="uniE723" unicode="of" horiz-adv-x="1325" 
d="M29 879h4q20 124 93 218q74 95 170 107q116 14 213 -54q92 -63 135 -184t33 -250q-5 -46 -36 -126q-47 -123 -154 -180q-108 -57 -229 -14q-134 46 -195 189q-61 142 -34 294zM250 997v4q-91 -94 -67 -246q24 -151 128 -202q102 -50 167 75q64 124 30 258q-12 45 -44 90
q-32 44 -75 57q-78 25 -139 -36zM1180 1141l-3 -3q-7 4 -17 4q-66 8 -122 -84q-55 -90 -82 -219q-26 -125 -31 -258q-5 -131 31 -204q26 7 87 27q86 27 102 32l41 15q16 17 45 -12q28 -28 43 -72q15 -43 1 -58q-17 -17 -106 -54q-92 -38 -149 -50q7 -25 15 -46q7 -18 23 -39
q13 -17 20 -24q1 -1 4.5 -5t10 -10.5l13.5 -13.5l28 -28q33 -35 -40 -78t-117 -25q-5 1 -10 6q-23 22 -132 219l-278 -99q-22 -7 -49 33q-26 40 -31 81q-5 40 18 54l282 95q-78 300 17 628q45 155 129 256q73 88 171 112q97 24 181 -21q19 -18 6 -55t-48 -73
q-34 -36 -53 -31z" />
    <glyph glyph-name="uniE724" unicode="on" horiz-adv-x="946" 
d="M121 -68h-3q11 540 31 572q2 0 56 -3q84 -5 116 -7q61 -4 78 -9q26 -26 78 -82q30 -32 95 -100q36 -38 83 -83q41 -39 72 -67q-18 349 17 931q0 22 84 27t84 -27q0 -2 -1 -30t-4 -98t-6 -144q-14 -342 -20 -534q-9 -270 -6 -309q2 -23 -43 -33t-96 -6t-69 21
q-113 101 -345 342q6 -241 0 -354zM618 791l-1 -2q-45 -78 -109 -136q-104 -95 -225 -84q-122 11 -206 123q-46 66 -66 164q-23 126 31 254q55 130 154 206q101 77 207 62q89 -12 155 -72t96 -143q30 -84 23 -183q-7 -100 -59 -189zM488 1081h-2q-12 53 -47 86
q-34 33 -72 25q-59 -12 -105 -64q-47 -53 -65 -116t-9 -128q9 -64 53 -102q61 -49 114 -10q71 33 112 126t21 183z" />
    <glyph glyph-name="uniE725" unicode="ont" horiz-adv-x="1304" 
d="M588 817l2 -4q-46 -79 -109 -135q-100 -90 -217 -81t-201 118q-49 63 -66 162q-20 123 31 248q52 127 148 206q98 79 204 66q92 -12 158 -75q67 -64 92 -148q25 -85 15 -181q-11 -97 -57 -176zM489 1106l1 -1q-13 56 -54 97q-40 40 -90 30q-88 -18 -145 -106t-55 -187
q2 -100 66 -152q34 -28 73 -29q41 -2 64 16q80 39 119 140q39 100 21 192zM130 -52h-4q11 499 21 563q14 0 34 1t56 1t57 -1q31 -1 52 -6q21 -4 27 -12q187 -241 284 -306q0 13 4 54l54 749q1 12 44 18q47 7 83 8h41q0 -1 -36 -504q-36 -505 -32 -537q1 -20 -72 -30t-90 6
q-69 61 -101 94q-25 26 -109 117q-80 86 -156 164q10 -141 3 -373zM1000 1123h-4q0 11 -2 23q-12 0 -54 -5t-57 -5q-6 0 -10 -1q-8 -2 -13 -3q-10 -2 -12 -2q-8 -2 -30 -3t-36 -6q-18 -6 -26 17q-10 30 -10 39q0 80 2 94q6 28 34 35q62 16 132 21q95 5 133 10h49h50h58h48
q18 0 63 -6t67 -6q8 0 17 -4t15 -4q23 -5 23 -30q0 -83 -19 -118q-8 -17 -12 -21q-16 -16 -33 -12q-31 8 -90 12q-51 4 -82 4h-14v-16v-54v-66v-54q0 -13 2 -125t2 -127q0 -12 2 -118t2 -120q0 -15 2 -127t2 -125q4 -143 4 -237q0 -33 -30 -45q-59 -26 -120 -3
q-31 11 -33 45q-2 38 -2 84q0 18 -2 166t-2 164q0 14 -2 122t-2 122q0 13 -2 123t-2 123q0 40 -3 120q-3 79 -3 119z" />
    <glyph glyph-name="uniE726" unicode="oo" horiz-adv-x="1644" 
d="M1217 55l2 -2q-134 1 -220 105q-85 104 -105 252q-20 149 6 314q25 164 95 290q63 113 177 155q113 42 222 -2q108 -44 155 -158q39 -91 51 -218q12 -126 -6 -254q-18 -126 -62 -237q-43 -109 -126 -178q-82 -69 -189 -67zM1331 995l-1 -1q-28 20 -69 14t-70 -35
q-86 -63 -116 -246q-30 -184 13 -339q22 -78 56.5 -116.5t81.5 -37.5q109 1 166 167t38 351q-20 186 -99 243zM363 306l-2 -1q-124 7 -225 71q-101 63 -126 160q-29 110 31 217q56 102 172 161q117 60 242 54q64 -2 131 -21q127 -33 196 -135q69 -103 38 -227
q-34 -136 -170 -213q-135 -77 -287 -66zM661 619q25 70 -33 121q-59 52 -147 59q-89 7 -174 -21q-45 -18 -84 -54t-51 -79q-20 -80 49 -135q67 -53 161 -53t174 45t105 117z" />
    <glyph glyph-name="uniE727" unicode="os" horiz-adv-x="1515" 
d="M633 -96l-3 1q-35 0 -50 43q-15 44 -8 87q8 44 27 44q515 29 654 153q84 74 21 174q-27 47 -130 120q-104 74 -201 153t-120 150q-33 109 39 220q56 84 172 120q117 36 207 -9q31 -27 30 -70t-23 -75q-18 -29 -33 -39t-25 -9t-28 9t-31 9q-34 4 -70 -15q-36 -20 -36 -45
q0 -27 10 -48q11 -23 39 -47q33 -28 51 -41q30 -22 72 -50l81 -54q160 -113 210 -249t-24 -258q-73 -121 -255 -184q-257 -90 -576 -90zM701 388h1q-49 -93 -115 -159q-106 -109 -241 -106q-134 3 -235 122q-61 72 -84 180q-29 135 21 282t155 242t224 84q106 -10 184 -78
q77 -67 112 -162t30 -204q-5 -111 -52 -201zM570 714l1 -1q-18 62 -66 106t-104 30q-97 -27 -157 -129t-51 -216t82 -169q40 -29 84 -29q45 0 71 23q91 50 131 166q41 117 9 219z" />
    <glyph glyph-name="uniE728" unicode="pp" horiz-adv-x="1193" 
d="M74 897l1 -5q1 15 6 46q4 29 6 44q8 59 36 164q19 70 39 127q10 29 27 33q25 6 51 0q78 -22 90 -30q4 -3 16 -15q2 -16 2 -18q0 -7 -7 -27l-9 -27q13 13 106 44q102 34 166 50q68 17 123 15q63 -4 102 -27q98 -59 66 -170q-17 -51 -61 -109q-162 -200 -553 -327
q-12 -5 -23 -9l-18 -6q-4 -141 12 -288t54 -210q-87 -33 -129 -32q-43 1 -55 51q-44 162 -57 357t9 369zM255 820l2 -1q6 0 31 13q164 82 207 111q165 110 196 164q-50 23 -180 -28q-132 -51 -204 -112q-37 -31 -42 -54zM1002 584h-1q-13 40 -60 45q-45 4 -103 -20
q-56 -23 -112 -60q-54 -35 -96 -74q-40 -37 -46 -60q0 -118 26 -176q145 49 280 168q135 118 112 177zM573 -344h-4q-88 167 -148 540q-60 371 -4 465q27 22 65 33t78 -4q7 -5 8 -19q1 -15 0 -43q0 -8 -0.5 -16t-1 -12t-0.5 -5q8 18 75 69t123 78q71 32 160 37q88 4 160 -36
q72 -41 78 -123q10 -130 -90 -258q-100 -127 -227 -201q-126 -73 -227 -90q58 -239 113 -354q12 -27 -24 -51q-35 -23 -77 -25q-40 -1 -57 15z" />
    <glyph glyph-name="uniE729" unicode="pr" horiz-adv-x="1193" 
d="M74 897l1 -5q1 15 6 46q4 29 6 44q8 59 36 164q19 70 39 127q10 29 27 33q25 6 51 0q78 -22 90 -30q4 -3 16 -15q2 -16 2 -18q0 -7 -7 -27l-9 -27q13 13 106 44q102 34 166 50q68 17 123 15q63 -4 102 -27q98 -59 66 -170q-17 -51 -61 -109q-162 -200 -553 -327
q-12 -5 -23 -9l-18 -6q-4 -141 12 -288t54 -210q-87 -33 -129 -32q-43 1 -55 51q-44 162 -57 357t9 369zM255 820l2 -1q6 0 31 13q164 82 207 111q165 110 196 164q-50 23 -180 -28q-132 -51 -204 -112q-37 -31 -42 -54zM996 533l3 -2q12 31 6 51q-13 40 -60 45
q-46 4 -102 -20q-53 -23 -111 -59q-54 -34 -94 -72q-39 -38 -45 -60q0 -55 26 -225t26 -198q0 -13 -37 -22q-36 -9 -78 -1q-40 7 -45 26q-63 242 -63 668q27 22 65 33t78 -4q7 -5 8 -19q1 -15 0 -43q0 -8 -0.5 -16t-1 -12t-0.5 -5q7 17 74 66q68 49 123 74q73 34 158 38
q87 5 155 -34q69 -39 75 -121q6 -54 -16 -123q-8 -27 -78 -21q-72 6 -70 41q0 8 4 15z" />
    <glyph glyph-name="uniE72A" unicode="ro" horiz-adv-x="1155" 
d="M735 1022v3q-26 52 -76 68q-37 12 -88 -3q-49 -12 -102 -59q-67 -59 -105 -144q-37 -84 -37 -168q0 -154 -21 -358q-21 -208 -40 -301q-7 -37 -45 -43q-50 -8 -108 19q-31 12 -33 24q-1 10 3 31q1 12 9 48t9 51q1 8 8 51q6 36 9 69t6 84q3 49 6 116q4 82 5 147
q1 43 0 120q0 19 -0.5 43t-1 37t-0.5 20q0 51 -6 101q-18 142 -33 192q-5 15 -12 29t-9 20q-1 5 0 18q6 18 66 66q61 48 80 23q61 -76 75 -210q72 82 166 127q65 31 137 37q149 12 256 -104q35 -38 59 -99q-44 -33 -84 -51q-41 -18 -63 -17q-23 2 -30 13zM1036 259l-2 -1
q-62 -113 -160 -177q-99 -65 -195 -45q-110 22 -184 120q-67 90 -72 222q-5 133 52 242q28 54 74 111q84 100 204 121q121 21 224 -61q109 -90 121 -250t-62 -282zM877 661l-1 2q-62 47 -126 20q-65 -27 -116 -108q-52 -82 -53 -166q-5 -121 63 -180q62 -51 144 -12
q118 56 146 210q28 155 -57 234z" />
    <glyph glyph-name="uniE72B" unicode="rr" horiz-adv-x="1193" 
d="M1004 569l-4 -6q12 31 6 52q-14 41 -60 45t-102 -20q-53 -23 -111 -59q-54 -34 -94 -72q-39 -37 -45 -60q0 -55 26 -226t26 -198q0 -13 -37 -22q-36 -9 -76 -1q-38 7 -43 27q-62 248 -64 667q27 22 65 33q37 11 78 -3q6 -5 9 -19q3 -13 1 -42q0 -8 -0.5 -15t-1 -11
t-0.5 -5q7 17 74 66q68 49 123 74q73 34 158 38q87 5 155 -34q69 -39 75 -121q6 -54 -16 -122q-8 -27 -78 -21q-72 6 -70 41q2 7 6 14zM301 148v-7q-87 -33 -129 -32q-43 1 -55 51q-127 489 3 979q39 141 59 156q1 1 6 3q25 6 51 0q10 -2 26 -6q20 -5 25 -6q7 -2 18 -6
q10 -4 20 -11q9 -6 17 -14q2 -16 2 -18q0 -7 -7 -27l-9 -27q13 13 106 44q102 34 166 50q68 17 123 15q63 -4 102 -27q68 -41 68 -120q0 -81 -46 -155q-47 -75 -108 -123q-13 -13 -57 5q-43 18 -72 50t-12 50q36 39 86 133q-50 23 -180 -28q-132 -51 -204 -112
q-73 -72 -67 -391t68 -426z" />
    <glyph glyph-name="uniE72C" unicode="rs" horiz-adv-x="1503" 
d="M844 743l-6 6q18 -77 12 -150q-4 -51 -15 -96q-5 -13 -31 -29q-7 -4 -39 -4q-43 0 -84 27q-1 1 -4 3q-2 2 -4 3l-8 6q-18 12 -13 35q4 12 9 53q11 91 -21 153q-43 73 -103 69q-61 -5 -119 -63q-40 -40 -66 -96q-25 -54 -37 -132q-11 -70 -16 -137q-5 -71 -8 -165
q-3 -114 -7 -160q-1 -37 -39 -49q-49 -16 -111 2q-37 10 -37 52q0 89 1 153q2 96 0 132t-3 99q-2 64 -6 119q-5 56 -12 129q-18 146 -33 193q-11 35 -16 41q-6 11 -2 27q6 17 68 66q62 48 80 24q26 -36 37 -66q33 -94 33 -126q0 -3 4 -18q72 82 166 127q54 26 138 37
q46 6 104 -22q59 -29 110 -84q52 -58 78 -159zM469 231l-3 -1q-47 89 -26 117q12 17 84 36t82 -3q0 -2 6 -33q5 -26 14 -55q8 -24 21 -42q109 -146 303 -123q160 16 256 126q109 121 31 246q-47 77 -162 138q-5 1 -84 57q-11 11 -22 21q-4 4 -13 12t-12 11q-49 58 -63 119
q-16 73 20 137q55 94 171 117q86 17 191 -33q100 -49 127 -139q7 -31 -18 -55q-33 -33 -69 -39q-18 -2 -36 -2q-34 0 -45 32q-2 12 -15 27q-23 29 -63 35q-26 6 -55 -4q-14 -5 -30 -25q-1 -6 0 -16q7 -26 45 -58q28 -22 108 -69q2 0 32 -18q35 -21 44 -26q10 -5 43 -32
q32 -25 48 -43q18 -20 36 -51q19 -33 26 -64q31 -116 -8 -228q-38 -110 -122 -187q-83 -76 -198 -120q-115 -43 -232 -39q-116 4 -229 74q-112 69 -183 200z" />
    <glyph glyph-name="uniE72D" unicode="rt" horiz-adv-x="1353" 
d="M1446 1253l-8 -3q-6 -60 -10 -69q-9 -15 -13 -21q-1 -4 -18 -9l-2 -2l-201 2q0 -6 -1 -9t-1 -9q0 -2 -0.5 -7t-1 -14t-0.5 -17q-2 -31 -3 -88q-2 -59 -3 -148q-2 -91 -3 -250q-2 -214 -2 -361q0 -46 -1 -83t-1 -84q0 -29 -27 -41q-66 -28 -133 3q-27 12 -27 45q0 5 2 33
t2 34q0 11 8 494q2 119 4 246.5t3 177t1 57.5q0 7 -1 13t-1 13q-5 0 -7 1t-5 1h-194q-40 1 -94 0t-73 0q-27 2 -39 30q-7 18 -9 35q-10 55 12 100q11 20 37 20q139 0 347 -1t321 -1q21 0 43 -1t44 -1q31 0 43 -26q14 -33 12 -60zM879 794l-3 1q18 -77 12 -150
q-4 -51 -15 -96q-5 -13 -31 -29q-7 -4 -39 -4q-45 0 -84 27l-8 6q-1 1 -3 2.5t-4 2.5l-1 1q-18 12 -13 35q4 12 9 53q11 91 -21 153q-27 55 -76 67q-40 12 -87 -2q-58 -13 -102 -59q-50 -50 -78 -145q-29 -96 -36 -168t-12 -225q-4 -152 -9 -205q-1 -37 -39 -49
q-49 -16 -111 2q-37 10 -37 52q0 91 1 159q2 102 0 146t-3 115q-1 72 -6 132q-5 62 -12 134q-23 197 -48 233q-10 16 20 54q30 37 71 60t54 5q26 -36 37 -66q33 -94 33 -126q0 -3 4 -18q72 82 166 127q65 31 137 37q150 12 256 -105q53 -57 78 -157z" />
    <glyph glyph-name="uniE72E" unicode="ss" horiz-adv-x="1300" 
d="M571 -301l3 -2q-19 1 -27 14t-5 29q2 11 8 33q5 18 12 35t7 24q0 12 17 17q16 5 48 6t42 3q176 26 270 81t111 123q16 67 -17 149q-33 81 -92 152q-58 71 -138 138q-56 46 -64 126q-11 111 74 194q63 70 175 85q111 15 190 -41q26 -27 17 -67q-9 -41 -34 -63
q-22 -22 -38 -30q-15 -8 -23 -6q-6 1 -24 11q-19 10 -30 14q-32 12 -69 -1q-38 -13 -42 -39t0 -48q4 -21 26 -49q18 -23 41 -46l60 -60q32 -32 66 -64q94 -94 121 -204q27 -111 -16 -206q-44 -96 -132 -174t-231 -114q-144 -36 -306 -20zM855 1096l-1 -8q6 -80 0 -132
q0 -14 -21 -30q-67 -33 -129 -4q-10 4 -13 48q-3 46 -19 99q-16 55 -60 90q-65 55 -151 49q-111 -7 -180 -110q-69 -102 -57 -212q12 -91 72 -152q50 -54 141 -106q33 -18 164 -93q51 -28 105 -76q42 -34 60 -55q57 -68 78 -150q23 -83 -25 -162q-71 -119 -210 -143
q-121 -19 -235 39q-106 58 -154 171q-10 29 9 48q41 47 125 47q26 0 36 -24q10 -28 27 -48q33 -41 100 -54q62 -14 113 21t32 75q-22 52 -68 90q-77 60 -147 97l-84 49l-84 49q-53 33 -112 98q-29 31 -48 63q-53 76 -69 183q-20 143 45 282q40 88 98 144q97 91 224 111
q215 32 363 -132q62 -70 75 -162z" />
    <glyph glyph-name="uniE72F" unicode="st" horiz-adv-x="1126" 
d="M1231 1253l-3 -3q-6 -60 -10 -69q-9 -15 -13 -21q-1 -4 -18 -9l-2 -2l-168 2q0 -6 -1 -9t-1 -9q0 -2 -0.5 -7t-1 -14t-0.5 -17q-2 -31 -3 -88q-2 -59 -3 -148q0 -8 -1.5 -97t-2.5 -153q-3 -160 -3 -361q0 -46 -1 -83t-1 -84q0 -29 -26 -41q-66 -28 -133 3q-27 12 -27 45
q0 5 2 33t2 34q0 71 7 494t7 481q0 7 -1 13t-1 13q-5 0 -7 1t-5 1h-52h-90h-52q-20 2 -65 0t-68 0q-28 2 -38 30q-8 20 -11 35q-10 55 12 100q11 20 36 20q128 0 314 -1t288 -1q22 0 42 -1t44 -1q31 0 43 -26q13 -33 12 -60zM677 869h3q0 -3 2 -31t2 -33q0 -4 -2 -20
q0 -3 -0.5 -5.5t-1 -4.5t-0.5 -3.5v-2.5q0 -26 -25 -42q-8 -7 -45 -14q-27 -6 -69 6q-39 10 -37 63q2 16 -4 68q-1 26 -33 49q-45 37 -100 33q-77 -2 -123 -75q-47 -74 -35 -144q10 -65 48 -103q6 -6 102 -75q73 -47 120 -69q5 -2 84 -57q1 -1 23 -21q11 -10 24 -23
q49 -57 64 -119q17 -74 -21 -137q-55 -95 -171 -117q-86 -16 -189 33q-100 49 -127 139q-8 31 16 55q33 33 70 39q18 2 36 2q34 0 45 -33q1 -12 14 -26q23 -29 63 -35q26 -6 55 4q14 5 30 25q1 6 0 16q-7 27 -45 57q-28 22 -108 69q-81 47 -127 76q-33 19 -90 78
q-17 18 -36 45q-39 51 -57 145q-28 139 60 271q89 132 233 155q174 27 288 -106q64 -74 64 -132z" />
    <glyph glyph-name="uniE730" unicode="stu" horiz-adv-x="1976" 
d="M1397 1253l-2 -3q-6 -57 -11 -69l-12 -21q-2 -4 -18 -9l-2 -2q2 0 -30 0q-47 0 -78 1t-96 1h-87h-46q0 -6 -1 -9t-1 -9q0 -2 -0.5 -7t-1 -14t-0.5 -17q-2 -31 -3 -88q-2 -59 -3 -148q0 -8 -1.5 -97t-2.5 -153q-3 -160 -3 -361q0 -46 -1 -83t-1 -84q0 -29 -26 -41
q-66 -28 -133 3q-27 12 -27 45q0 5 2 33t2 34q0 71 7 494t7 481q0 7 -1 13t-1 13q-5 0 -7 1t-5 1h-194q-20 2 -65 0t-68 0q-28 2 -38 30q-8 20 -11 35q-10 55 12 100q11 20 36 20q156 0 398 -1t371 -1q21 0 43 -1t43 -1q31 0 43 -26q15 -32 13 -60zM692 876l-4 -4
q4 -36 4 -63q0 -3 -2 -21q0 -3 -0.5 -7.5t-1 -7t-0.5 -3.5q0 -26 -24 -42q-8 -7 -45 -14q-29 -6 -72 6q-38 10 -37 64q2 40 -4 69q-6 28 -35 51q-49 39 -102 33q-80 -11 -126 -79q-47 -70 -35 -143q11 -62 49 -105q7 -9 105 -77q98 -59 122 -72q24 -11 87 -59q6 -6 24 -21
t27 -24q50 -59 63 -120q18 -76 -20 -142q-55 -95 -174 -118q-91 -18 -195 32q-104 53 -129 144q-8 33 16 57q33 33 72 39q18 2 36 2q37 0 48 -33q1 -13 14 -27q23 -29 66 -35q26 -6 55 4q14 4 30 24q5 6 3 17q-12 31 -47 60q-39 33 -111 72q-91 53 -129 78q-36 20 -92 78
q-14 15 -37 47q-39 56 -57 147q-29 143 63 278q92 136 237 158q180 28 295 -108q57 -69 63 -135zM1737 261l-5 -5q-2 10 -3 33t-3 33q-8 -10 -21 -30q-9 -13 -19 -28q-78 -101 -152 -147q-77 -45 -143 -43q-83 5 -139 55q-66 57 -97 148q-13 44 -30 131q-11 58 -12 213
q0 90 24 207q25 120 55 182q12 27 37 27q71 0 127 -52q20 -18 8 -47q-50 -111 -63 -280t15 -274q26 -92 58 -113q33 -21 93 28q64 56 116 153q150 268 150 513q0 17 49 26q51 9 99 5q17 -2 27.5 -4t15.5 -5t5 -7q-35 -260 -33 -471q1 -211 30 -334q-80 -59 -108 -63
q-45 -2 -66 63q-10 34 -15 86z" />
    <glyph glyph-name="uniE731" unicode="th" horiz-adv-x="1353" 
d="M154 1214l-2 -4q-8 0 -120 -5t-118 -5q-14 0 -45 -7q-33 -7 -54 -6t-27 18q-20 67 -6 135q4 26 36 33q47 13 194 23q148 10 243 6l156 -4q139 -4 231 -9q105 -5 126 -7q34 -3 48 -3q19 0 36 -10q18 -11 18 -30q0 -87 -20 -118q-25 -37 -48 -31q-20 6 -187 15
q-181 10 -271 11q-6 -62 -4 -234q1 -43 0 -109q-1 -44 -1 -107q0 -67 -1 -120t-1 -118v-79v-94v-77q1 -121 0 -238q0 -35 -31 -47q-61 -25 -121 0q-31 12 -33 47v84v166q0 93 2 165q2 41 0 122t0 122t0 105t0 105v305zM762 1049l-5 -6q-46 -292 -57 -404q50 70 114 103
q63 33 126 27q64 -6 124 -37q62 -32 111 -91t85 -133q35 -72 49 -163q13 -88 1 -182q-18 -137 -31 -180q-10 -31 -63 -31q-56 0 -90 24q-35 24 -27 59q0 4 24 139q18 110 -22 225q-41 117 -106 176q-51 35 -102 9q-51 -25 -96 -131q-44 -103 -64 -254q-2 -24 -2 -158
q0 -37 -52 -55q-53 -18 -91 -11q-23 0 -33 19t-10 39q-17 79 -25 168q-8 98 -8 249q0 331 64 615q2 11 23 17q22 6 48 5q27 -1 54 -6q29 -5 45 -13q17 -9 16 -19z" />
    <glyph glyph-name="uniE732" unicode="ti" horiz-adv-x="765" 
d="M-102 1188q0 34 12 59q12 26 43 25h24h31h24q41 0 306 -4t333 -4q26 0 37 -23q20 -41 9 -99q-1 -16 -9 -36q-12 -29 -39 -29q-3 0 -11.5 0.5t-24.5 1t-31 0.5q-56 1 -66 0h-57q-50 0 -82 1t-56 1q-3 0 -5 -1t-7 -1q0 -7 -1 -12t-1 -12q0 -158 -2 -238v-60v-69v-58v-80
v-121v-80v-229q0 -19 1 -33t1 -34q0 -31 -27 -43q-66 -28 -133 0q-27 12 -27 41v168q0 103 2 189q2 34 0 153q0 34 -0.5 65.5t-1 46.5t-0.5 17q0 164 2 246q2 27 0 72q0 11 -0.5 25.5t-1 22t-0.5 11.5t-1 8t-1 8h-61q-40 0 -60 2q-34 2 -78 2q-13 0 -21 11l-12 20
q-8 21 -8 70zM674 653l-1 -1q-16 -157 -4 -355q12 -196 45 -299q-11 0 -25 -1t-44 -1h-47q-26 0 -42 3q-17 3 -18 7q-8 14 -21 93t-24 227q-10 140 -10 301q0 43 11 78q14 27 54 23t84 -30t42 -45zM624 978l-3 -2q43 0 73 -32q30 -31 28 -72q2 -40 -28 -70t-73 -30
q-41 0 -72 31t-30 72q1 42 32 73q30 30 73 30z" />
    <glyph glyph-name="uniE733" unicode="tl" horiz-adv-x="1118" 
d="M754 1319l-1 -4q0 -48 -11 -70q-1 -1 -3 -5t-4.5 -7.5t-4.5 -7.5q-6 -10 -20 -10q-19 0 -36 -1t-37 -1q-221 0 -261 -3v-14q0 -51 -1 -115t-1 -118q0 -52 -1 -93t-1 -94q0 -43 -4 -158t-4 -160q0 -56 -1 -105t-1 -106q0 -47 -1 -84t-1 -83q0 -29 -26 -41q-63 -28 -133 3
q-28 12 -27 43q2 16 2 33v34q4 45 4 251q8 245 8 318q0 52 1 94t1 95v281q0 7 -1 12t-1 12q-3 0 -9 2l-6 2h-72h-131q-27 0 -39 28q-7 18 -9 35q-10 55 12 100q12 23 39 23q75 0 192 1t297 1h169q45 -5 69 -3q29 2 41 -25q13 -27 13 -60zM1123 111l-3 2q-11 -23 -82 -27
q-80 -5 -313 -5h-100q-10 0 -18 -1t-20 -1q-4 0 -16 2q-8 1 -10 8q-50 123 -64 320q-14 195 6 371q19 173 59 288q14 20 57 20t84 -21t29 -46q-17 -33 -37 -164q-19 -129 -24 -291q-4 -162 27 -298q46 -6 96 -9q54 -3 87 -2q50 2 74 3q36 2 57 3q14 1 42 5q21 3 23 3
q41 2 56 -54t-10 -106z" />
    <glyph glyph-name="uniE734" unicode="to" horiz-adv-x="1112" 
d="M-111 1247h-6q12 26 43 25l182 -2q186 -2 387 -3q56 0 112 -0.5t84.5 -1t37.5 -0.5q35 0 45 -40q10 -41 3 -84q-7 -62 -48 -64l-428 2h4q0 -66 -2 -160t-2 -289v-80v-121v-80v-229q0 -20 1 -32t1 -27q0 -6 -2 -20q-1 -10 -8 -17q-5 -6 -16 -10q-66 -29 -134 0
q-28 12 -26 41q0 823 2 885q2 26 -1 72q-3 50 -3 74q-61 1 -106 0q-45 -2 -75 0t-36 12q-20 28 -21 75q-2 47 12 74zM1016 338l-2 -1q-104 -181 -258 -212t-268 114q-49 63 -66 161q-20 122 30 249q50 128 149 206q98 78 205 64q124 -18 197 -120t72 -223q-1 -120 -59 -238z
M914 630l1 -3q-13 56 -54 97q-41 40 -90 30q-89 -18 -144 -106t-54 -187q2 -99 64 -153q52 -45 108 -25t99 70q44 52 65 129q21 79 5 148z" />
    <glyph glyph-name="uniE735" unicode="tr" horiz-adv-x="1308" 
d="M-123 1253l-6 -7q-1 27 12 60q12 27 43 26q21 0 43 1t43 1q112 0 320 1t347 1q26 0 37 -20q19 -39 12 -100q0 -2 -2 -8t-3 -10t-3 -10t-2 -8q-12 -28 -39 -30q-19 -1 -73 0t-94 0h-194q-3 0 -5 -1t-7 -1q0 -7 -1 -12t-1 -12q0 -8 1 -57.5t3 -177t4 -245.5q8 -482 8 -492
q0 -5 2 -33t2 -33q0 -33 -27 -45q-70 -31 -133 -3q-27 10 -27 42q0 47 -1 84t-1 83q0 148 -2 362q-2 162 -3 251q-2 91 -3 149q-1 57 -3 88q0 8 -0.5 17t-1 14t-0.5 8q0 6 -1 9t-1 9l-201 -2q6 0 -2 2q-17 4 -18 9q-7 12 -12 21q-4 9 -10 69zM1268 775l-6 -4q18 -77 12 -150
q-4 -51 -15 -96q-5 -13 -31 -29q-7 -4 -39 -4q-43 0 -84 26l-6 8q-5 7 -9 8q-18 12 -12 35q4 12 9 53q11 92 -21 153q-27 56 -76 69q-40 12 -87 -2q-57 -16 -102 -60q-41 -40 -66 -96q-25 -54 -37 -133q-11 -72 -16 -138q-5 -71 -8 -165q-3 -114 -7 -160q-1 -37 -39 -49
q-49 -16 -111 2q-37 10 -37 51q0 25 2 153q2 96 0 134q-1 37 -3 101t-6 119q-5 55 -12 129q-18 146 -33 193q-13 37 -16 41q-10 16 -3 27q22 31 101 36q78 5 84 -9q33 -41 33 -125q0 -3 4 -18q72 82 166 127q66 31 137 36q149 12 256 -104q52 -58 78 -159z" />
    <glyph glyph-name="uniE736" unicode="tt" horiz-adv-x="1099" 
d="M713 1319l-2 -4q0 -48 -11 -70l-12 -20q-6 -10 -20 -10q-19 0 -36 -1t-37 -1q-221 0 -261 -3v-14q0 -51 -1 -115t-1 -118q0 -52 -1 -93t-1 -94q0 -43 -4 -158t-4 -160q0 -56 -1 -105t-1 -106q0 -47 -1 -84t-1 -83q0 -29 -26 -41q-63 -28 -133 3q-28 12 -27 43q2 16 2 33
v34q4 45 4 251q8 245 8 318q0 10 2 94t2 95v281q0 7 -1 12t-1 12q-3 0 -9 2q-1 0 -3 1t-3 1h-72h-131q-27 0 -39 28q-7 18 -9 35q-10 55 12 100q12 23 38 23q75 0 192 1t297 1h169q45 -5 69 -3q29 2 41 -25q13 -27 13 -60zM1118 1049l-6 -2q0 -50 -10 -70l-12 -20
q-6 -11 -21 -12q-18 0 -34 -1t-36 -1h-37h-44h-37v-14q0 -49 -1 -109t-1 -112t-1 -93t-1 -94q0 -38 -1 -58t-1 -60q0 -58 -1 -107t-1 -104q0 -46 -1 -84t-1 -83q0 -29 -27 -41q-63 -28 -133 3q-28 12 -27 43q2 14 2 33v33q4 40 4 138v114q2 76 2 117q0 52 1 94t1 95v269
q0 7 -1 12t-1 12q-6 0 -9 1t-6 1l-37 -2q-35 0 -35 2q-24 2 -39 2q-30 0 -48 -1t-42 -1q-27 0 -39 29q-7 18 -9 35q-10 55 12 100q11 23 39 23h57h112h147h134q80 0 105 -1t31 -1q29 2 41 -25q12 -29 12 -60z" />
    <glyph glyph-name="uniE738" unicode="ttl" horiz-adv-x="1609" 
d="M1223 1229l-6 -8q-7 -12 -93 -12q-220 0 -261 -3q0 -39 -1 -114t-1 -132q0 -52 -1 -93t-1 -94q0 -43 -4 -158t-4 -160q0 -56 -1 -105t-1 -106q0 -47 -1 -84t-1 -83q0 -29 -27 -41q-63 -28 -133 3q-29 12 -26 43q2 14 2 32v35q4 45 4 251q8 245 8 318q0 52 1 94t1 95
l-2 305h-8q-3 0 -21 2t-26 2h-22h-8h-168q-27 0 -39 28q-29 76 3 135q12 23 39 23q76 0 200 1t316 1h179q34 -2 49 -2h33q9 0 17 -5t14 -20q16 -32 13 -75q-3 -41 -23 -73zM1610 107l-5 2q-11 -23 -82 -27q-80 -5 -313 -5h-101q-10 0 -18 -1t-21 -1q-6 0 -16 2q-7 1 -9 8
q-50 123 -64 320q-14 195 6 371q19 173 59 288q14 20 57 20t84 -21t29 -46q-19 -36 -38 -164q-20 -129 -24 -291q-5 -163 28 -298q46 -6 96 -9q54 -3 87 -2l75 3q39 2 59 3q14 1 42 5q21 3 23 3q41 2 56 -54t-10 -106zM573 975l-4 -6q-5 -7 -9 -12q-2 -2 -4 -4.5t-3 -3.5
q-3 -3 -8 -5l-9 -3q-6 -2 -13 -2h-14h-19h-24h-36h-44h-38v-14q0 -49 -1 -109t-1 -112t-1 -93t-1 -94q0 -38 -1 -58t-1 -60q0 -55 -1 -104t-1 -105q0 -27 -1 -61t-1 -82q0 -29 -26 -41q-63 -29 -134 3q-29 12 -26 43v33q0 19 2 33q4 40 4 126v99q2 76 2 117q0 52 1 94t1 95
v269q0 7 -1 12t-1 12l-160 2q-39 0 -49 64q-10 55 12 100q12 23 39 23q51 0 144 -1t241 -1h143q29 2 41 -25q12 -32 12 -70q0 -40 -10 -59z" />
    <glyph glyph-name="uniE739" unicode="ty" horiz-adv-x="1282" 
d="M-133 1178l-2 -4q0 32 12 60t43 24h78q41 0 306 -4t333 -4q25 0 37 -22q20 -41 9 -101q-1 -16 -9 -34q-12 -29 -39 -29l-328 4q-3 0 -5 -1t-7 -1q0 -7 -1 -12t-1 -12q0 -159 -2 -237v-189v-79v-121v-79v-229q0 -18 1 -33t1 -34q0 -31 -27 -43q-68 -28 -132 0
q-28 12 -26 41v168q0 104 2 188q2 35 0 153q0 34 -0.5 65.5t-1 46.5t-0.5 17q0 164 2 246q2 27 0 72l-2 60q0 6 -1 9t-1 9h-61q-41 0 -59 2q-34 2 -78 2q-14 0 -21 10q-7 12 -12 21q-8 21 -8 70zM612 932l-1 4q33 0 33 -31q0 -186 43 -285q82 -193 184 -148q91 40 141 234
q53 212 8 436q-6 33 27 43q35 12 39 12q0 2 32 2l35 -2q7 0 19 -4q32 -11 48 -120t12 -192q-2 -66 -12 -138q-33 -240 -99 -399q-63 -149 -153 -235q-97 -91 -207 -107q-74 -12 -158 12q-61 17 -151 74q-25 16 -19 43q17 74 82 113q22 12 42 -2q53 -39 111 -51
q70 -13 126 18q57 33 88 82q7 11 12 16q-54 -16 -102 -16q-67 0 -129 43q-67 45 -114 137q-47 95 -66 195q-7 37 -11 111q-4 78 -9 117q-2 14 7 23t22 9z" />
    <glyph glyph-name="uniE73A" unicode="us" horiz-adv-x="1632" 
d="M971 262l-9 -8q1 -15 3 -25q1 -9 -18 -19q-21 -11 -31 -15q-24 -9 -34 -13q-20 -8 -28 -10q-20 -10 -48 33q-28 42 -52 103q-23 58 -31 105q-1 11 -6 33t-6 33l-8 2l-37 -61q-121 -205 -271 -211q-112 -4 -190 95q-77 98 -106 239q-29 139 -18 294q5 119 8 147q1 17 6 43
q6 36 7 39q0 1 2.5 13t4.5 19q4 17 6 29q1 11 6 24q5 14 9 20q3 4 11 14q5 6 14 10q10 4 15 5q53 8 125 -39q23 -12 12 -39q-23 -66 -36 -163q-18 -92 -11 -231q8 -141 39 -225q63 -182 164 -72q57 66 102 162q59 129 96 330q17 85 18 126q6 86 2 110q-2 14 45 26
q46 12 87 12q40 0 48 -8q0 -20 -1 -33q-2 -21 -3 -46q-2 -36 -2 -41q-13 -297 36 -559q7 -46 38 -139q30 -89 42 -109zM741 -100l2 4q-33 0 -48 41t-9 83t25 42q515 28 655 155q86 74 23 179q-27 46 -132 120t-201 153q-96 80 -119 152q-32 104 39 215q56 83 171 119t204 -9
q31 -25 28 -67q-3 -41 -23 -73q-17 -26 -33 -37q-15 -11 -24 -9q-6 1 -27 8q-20 7 -33 8q-36 4 -73 -17q-36 -21 -36 -48q0 -25 11 -49q11 -23 38 -47q23 -20 50 -42q19 -15 75 -52q52 -35 81 -54q160 -111 208 -247t-26 -255t-252 -182q-133 -49 -301 -70
q-166 -21 -273 -21z" />
    <glyph glyph-name="uniE73B" unicode="ut" horiz-adv-x="1353" 
d="M1423 1163l-6 -3q-6 -7 -50 -9t-101 0q-16 0 -32 0.5t-25 1t-12 0.5q0 -6 -1 -9t-1 -9q0 -2 -0.5 -7t-1 -14t-0.5 -17q-2 -31 -3 -88q-2 -59 -3 -148q-2 -91 -3 -250q-2 -214 -2 -361q0 -46 -1 -83t-1 -84q0 -29 -27 -41q-66 -28 -133 3q-27 12 -27 45q0 5 2 33t2 34
q0 78 6 450t6 548q-5 0 -7 1t-5 1h-194q-40 1 -94 0t-73 0q-38 1 -49 66q-10 55 12 100q11 20 37 20q139 0 347 -1t321 -1q21 0 43 -1t44 -1q31 0 43 -26q34 -82 -11 -150zM656 265l-6 -6q0 2 -1.5 13.5t-2.5 20.5q-1 8 -2.5 19t-1.5 14q-8 -15 -19 -30q-13 -19 -22 -28
q-78 -103 -151 -147q-77 -45 -144 -43q-83 5 -139 55q-66 57 -96 148q-13 44 -30 131q-10 56 -10 213q0 90 24 207q25 120 55 182q12 27 37 27q71 0 127 -52q20 -18 8 -47q-50 -111 -63 -280t15 -274q26 -92 58 -113q34 -21 92 28q63 55 117 153q150 269 149 513q0 17 50 26
q51 9 99 5q17 -2 27.5 -4t15.5 -5t5 -7q-35 -260 -33 -471q1 -211 30 -334q-80 -59 -108 -63q-45 -2 -65 63q-10 34 -15 86z" />
    <glyph glyph-name=".notdef" horiz-adv-x="1079" 
d="M102 0v1434h875v-1434h-875zM160 1393l379 -633l381 633h-760zM514 717l-369 614v-1231zM541 674l-379 -631h758zM565 717l371 -621v1239z" />
    <glyph glyph-name=".null" horiz-adv-x="0" 
 />
    <glyph glyph-name="nonmarkingreturn" horiz-adv-x="682" 
 />
    <glyph glyph-name="space" unicode=" " horiz-adv-x="727" 
 />
    <glyph glyph-name="exclam" unicode="!" horiz-adv-x="489" 
d="M389 1352l-3 -5q6 -6 6 -19q0 -53 -4 -129q-2 -34 -2 -72q0 -39 -2 -69q-2 -18 -2 -44t-2 -44q0 -48 -4 -113q0 -13 -1 -24t-1 -24q0 -65 -2 -117q-2 -34 -2 -70q0 -38 -2 -68q-4 -84 -4 -139q0 -6 -1.5 -29t-2.5 -40q-3 -46 -3 -69q0 -16 -2 -30q0 -13 -18 -24
q-31 -12 -61 -12q-34 -4 -63 8q-5 0 -22 10q-23 11 -18 36q0 24 1 44t1 44l6 111v67l3 36q1 16 1 36q0 26 2 48v68q0 18 5 66v50q2 30 2 69q0 28 4 68v51q2 30 2 68q4 65 4 110q2 24 2 51q0 20 1 35t1 33q-2 44 36 54q74 17 125 -6q10 -6 20 -16zM265 136l-1 -1q50 0 87 -31
q37 -32 39 -81q2 -50 -31 -87q-33 -38 -84 -39t-87 33q-35 34 -37 80q-5 50 30 87t84 39z" />
    <glyph glyph-name="numbersign" unicode="#" horiz-adv-x="1085" 
d="M1016 864l-2 1q4 -61 -12 -94q-13 -27 -45 -25h-6q-77 0 -137 -2q-14 -30 -14 -84h6h92q11 0 21 -1t23 -1t27 -20q10 -27 12 -35q6 -55 -6 -94q-6 -14 -10 -21q-10 -16 -30 -16q-42 2 -90 2h-4h-72l-12 -86q-7 -50 -21 -147q-10 -62 -16 -111q-5 -29 -31 -35
q-29 -11 -75 -3q-34 5 -59 21t-18 43q5 26 9 54q5 30 9 64q5 36 6 54q2 19 9 68q8 50 12 78h-150l-2 -6l-2 -6q-2 -30 -6 -86q-5 -58 -6 -85q-6 -37 -6 -42q0 -25 -29 -36t-59 -6t-57 12q-9 1 -28 17q-14 11 -11 28l6 60l6 60q4 45 6 66v22q-6 2 -13 2h-102q-34 0 -45 29
q-20 63 0 125l6 12q4 8 6 9q6 11 21 12h127q4 0 9 -1t12 -1q0 16 1 25q2 14 3 30q2 22 2 24q-22 2 -48 2q-66 0 -120 -2q-31 0 -43 25q-12 31 -12 61q0 43 6 58q0 3 1 6q1 4 3 6q12 29 43 29q35 0 65 1t67 1q14 0 27 -1t30 -1q0 14 1 21t3 23t2 18l12 117q0 9 1 17t1 18
q2 19 27 30q19 11 51 12q61 -4 88 -24q11 -6 18 -16q4 -7 4 -17q-14 -139 -17 -177l-2 -6l-2 -6q7 -4 12 -4q0 -1 9 0h8q79 0 145 2q1 7 8 39q7 30 8 44q2 18 6 53t6 56q4 17 4 29q1 19 20 27q18 7 41 12q61 0 99 -23q10 -6 14 -10q11 -12 10 -31q-5 -29 -12 -87t-12 -87
q-2 -8 -2 -20q18 0 32 -1t33 -1h66q23 2 27 -19q17 -45 17 -48zM608 660l2 -1q10 42 13 84h-164q-5 -33 -9 -81q46 0 80 -1t78 -1z" />
    <glyph glyph-name="dollar" unicode="$" horiz-adv-x="878" 
d="M760 1145v-6q27 -61 18 -127q-11 -74 -42 -119q-18 -20 -37 -14q-20 5 -26 9q-51 27 -80 68q-18 29 -6 53q0 2 6 35q0 9 -2 15q-13 34 -62 54q-1 -67 -6 -198t-6 -198q33 -17 39 -21q51 -26 102 -75q44 -44 70 -125q32 -112 -27 -213q-49 -89 -108 -141q-51 -40 -99 -59
q0 -13 -1 -24t-1 -24q0 -25 -1 -47t-1 -47q0 -18 -19 -31l-7 -3q-8 -3 -15 -5q-62 -12 -111 4q-8 4 -21 12q-14 8 -14 29q0 52 4 121v10q-27 10 -33 15q-112 55 -162 156q-25 49 -25 100q0 17 17 29q17 13 56 17q43 4 76 -9q16 -4 24 -12q10 -8 15 -21q2 -29 30 -53l5 -5
q4 -4 5 -7q0 13 1 23q2 16 3 23q2 32 3 91q2 80 2 91q0 3 2 33t2 36q0 22 -17 27q-121 66 -171 179q-51 112 -10 233q31 90 100 154q53 52 108 77q10 4 10 19q0 25 1 46t1 48q1 25 23 33q26 11 55 15q45 0 75 -10l2 -2q2 -2 3 -2q32 -14 30 -47v-23q0 -7 -1 -12t-1 -12
q7 -4 12 -4q59 -8 119 -51q55 -37 93 -108zM336 825h1q5 128 6 193q-39 -38 -43 -91t36 -102zM544 375h-1q17 33 9 69t-41 59q-5 -123 -6 -186q6 7 24 33q8 10 15 25z" />
    <glyph glyph-name="percent" unicode="%" horiz-adv-x="966" 
d="M881 1210h-4q7 -14 0 -30q-37 -60 -60 -101q-96 -158 -225 -377q-16 -31 -70 -117q-53 -85 -85 -144q-117 -195 -213 -360q-13 -25 -42 -25q-9 0 -20 4q-52 14 -90 57q-4 4 -13 16q-7 18 3 37q34 57 50 84q14 24 33.5 56t22.5 38q4 6 69 116q69 117 88 147l227 381
q132 223 162 275q17 29 48 23q72 -12 112 -67zM348 918h-1q-55 -12 -97 17q-41 28 -52 80q-12 71 33 129q38 44 81 55q7 1 20 3q3 0 6.5 0.5t5.5 1.5h2q48 0 83 -31q36 -32 42 -76q7 -61 -30 -115q-37 -53 -93 -64zM683 453v-1q50 4 91 -35q40 -39 40 -94q0 -54 -37 -92
q-37 -39 -94 -39q-58 -1 -96 38q-37 38 -37 92q0 55 40 94t93 37z" />
    <glyph glyph-name="ampersand" unicode="&#x26;" horiz-adv-x="1484" 
d="M1421 616l6 2q9 -12 2 -28q-18 -50 -67 -90q-42 -38 -114 -70q-16 -6 -16 -25q-1 -62 -33 -133q-32 -75 -88 -138q-125 -137 -311 -197q-74 -23 -156 -32q-79 -8 -127 -2q-155 13 -268 86q-146 96 -181 258q-18 95 17 196q32 92 106 177q122 130 309 191q2 0 3 1t3 1
q0 2 2 2q0 2 -4 6t-4 6q-94 95 -141 213q-18 51 -24 111q-7 83 24 159q45 98 154 132q61 19 133 9q134 -18 262 -121q89 -73 147 -166q2 0 2 -2q0 -1 2 -3q18 -25 -2 -54q-43 -50 -111 -64q-31 -6 -49 25q-77 123 -204 180q-51 23 -96 23q-6 0 -10 -1l-12 -3q-4 -1 -10 -3
q-34 -11 -41 -37q-11 -29 -6 -56q11 -95 94 -196q72 -83 160 -120q29 -13 84 -20q8 -1 24 3q23 5 32 -11q23 -19 29 -49q10 -30 10 -54q2 -27 -6 -53q-11 -17 -24 -18q-8 -2 -13 -3q-10 -2 -16 -3t-13 -1t-12 -1t-12 -1h-20q-83 16 -123 15q-118 -6 -207 -45
q-95 -39 -162 -104q-74 -71 -92 -153q-25 -100 47 -178q50 -53 129 -75q85 -27 178 -20q175 17 303 115q63 49 105 120q4 9 16 37q-22 -6 -61.5 -16.5t-57.5 -15.5l-84 -24q-83 -25 -84 -25l-8 -2l-8 -2q-25 -6 -42 17q-16 28 -24 69q-6 29 -2 62q6 28 31 35q110 35 294 82
q126 32 201 71q37 18 55 37q7 8 9 12q12 19 35 21q17 0 42 -4q49 -11 81 -39q7 -5 15 -16z" />
    <glyph glyph-name="quotesingle" unicode="'" horiz-adv-x="262" 
d="M311 1354l2 2q16 -36 19 -69q18 -115 -54 -211q-6 -9 -49 -47q-8 -8 -32 -2q-27 12 -51 50q-24 37 -24 66q0 23 10 27q32 31 31 82q-4 39 -25 58q-16 10 -10 37q6 33 30 63q25 31 45 38q16 12 45 -2q46 -46 63 -92z" />
    <glyph glyph-name="parenleft" unicode="(" horiz-adv-x="538" 
d="M403 1126l-1 1q10 -29 -9 -48q-41 -39 -71 -119q-38 -94 -48 -225q-10 -115 9 -222q12 -100 57 -184q20 -33 35 -47q19 -16 35 -19t23 -21q12 -32 12 -60q-5 -54 -10 -69q-2 -2 -5 -8l-5 -10q-12 -18 -35 -18q-56 6 -111 43q-68 50 -113 141q-30 61 -53 147
q-14 57 -21 133l-6 67v97q0 68 18 167q32 154 93 255q35 58 75 95q20 18 45 6q11 -4 27 -18q47 -40 59 -84z" />
    <glyph glyph-name="parenright" unicode=")" horiz-adv-x="536" 
d="M133 182h-2q-10 31 12 49q44 44 72 121q38 101 48 223q8 104 -9 224q-16 109 -57 183q-18 33 -35 47q-18 18 -35 21q-14 2 -23 20q-14 33 -12 59q0 45 10 69q1 6 11 21q12 18 32 16q64 -6 113 -43q68 -50 113 -141q31 -63 51 -146q16 -55 22 -133q6 -68 7 -69v-94
q-1 -84 -18 -168q-31 -155 -93 -255q-38 -60 -78 -94q-22 -18 -42 -6q-20 8 -27 15q-43 41 -60 81z" />
    <glyph glyph-name="asterisk" unicode="*" horiz-adv-x="737" 
d="M680 1153l2 -4q2 -27 -21 -41q-33 -18 -104 -65l-12 -9q13 -6 24 -12q11 -4 18 -12q5 -8 22 -21q5 -4 23 -12q26 -12 21 -41q-10 -71 -66 -115q-25 -22 -52 -3q-23 15 -86 51q-7 1 -18 11q-5 -22 -9 -60q-4 -29 -4 -51q-5 -28 -27 -35q-29 -12 -63 -8q-40 4 -60 15
q-13 6 -26 17q-14 11 -11 28q1 10 3.5 31t3.5 29l-30 -18l-30 -18q-22 -16 -45 0q-11 7 -18 14q-37 34 -54 90q-2 8 -2 21q0 19 17 30q52 33 81 51q-1 2 -6 3q-6 2 -9 2q-10 6 -36 18q-26 7 -24 39q4 26 6 36q12 39 37 70q8 10 22 20q17 14 39 3q25 -14 68 -32q8 -1 15 -9
q0 2 2 18q1 12 3 18q4 26 9 75q0 20 22 30q2 0 11 3t13 3q63 6 108 -15q11 -5 21 -14q12 -10 12 -31q-4 -29 -9 -45l21 12q7 4 23 14l18 12q6 3 37 23q22 17 45 0q23 -13 39 -36q31 -45 36 -80z" />
    <glyph glyph-name="plus" unicode="+" horiz-adv-x="780" 
d="M723 711l-3 -6q0 -42 -10 -69q-8 -16 -12 -21q-8 -17 -30 -18q-95 4 -162 4q-6 2 -15 2q-8 0 -16 2q-2 -10 -2 -23t-2 -23q-5 -45 -6 -69q-5 -38 -6 -54q-1 -18 -3 -56t-3 -56q0 -22 -21 -30q-30 -10 -42 -10q-42 -6 -86 10q-14 6 -21 10q-18 12 -17 33q1 12 3 41
q2 38 2 41q5 37 6 54l6 68q2 24 6 71q-10 0 -18 1t-16 1q-11 1 -35 3q-50 0 -123 4q-17 0 -28 20q-12 27 -15 49q-5 47 15 86q12 29 43 29q69 0 168 -4q7 0 12 -1t12 -1q4 25 6 36q0 5 2 35t2 33l7 68q4 33 4 55q5 16 15 24q17 7 35 12q59 6 102 -12q6 -1 21 -11
q14 -12 14 -30q-4 -28 -9 -95q-7 -76 -9 -108v-8q23 -4 36 -4q84 -4 144 -4q25 0 37 -24t12 -55z" />
    <glyph glyph-name="comma" unicode="," horiz-adv-x="360" 
d="M295 307v-2q8 -35 8 -74q-5 -125 -90 -207q-20 -23 -59 -41q-22 -11 -39 3q-15 11 -23 24q-38 56 -36 111q5 20 18 29q34 20 42 75q4 33 -15 58q-13 17 -3 45q12 37 56 72l39 24q28 10 48 -14q38 -41 54 -103z" />
    <glyph glyph-name="hyphen" unicode="-" horiz-adv-x="595" 
d="M522 670v-1q10 -19 15 -56q0 -46 -13 -73q-14 -35 -36 -35q-78 0 -194 6q-25 0 -47 1t-47 1q-59 4 -97 4q-23 0 -32 23q-32 63 3 143q12 20 37 21q165 -6 180 -7q23 0 42 -1t44 -1q65 -4 110 -4q23 2 35 -21z" />
    <glyph glyph-name="period" unicode="." horiz-adv-x="428" 
d="M346 72v2q0 -52 -37 -90q-38 -40 -94 -41q-58 -1 -96 38q-37 38 -37 93q0 80 66 113t132 0t66 -115z" />
    <glyph glyph-name="slash" unicode="/" horiz-adv-x="733" 
d="M670 1288l-1 1q5 -11 0 -21q-11 -32 -25.5 -73.5t-16.5 -47.5q-303 -840 -381 -1071q0 -5 -4 -13q-5 -10 -6 -13q-6 -18 -27 -18q-29 -2 -62 6q-26 7 -57 29q-4 1 -19 15t-6 39q6 23 421 1194q12 39 52 39q70 -4 117 -45q13 -13 15 -21z" />
    <glyph glyph-name="zero" unicode="0" horiz-adv-x="1011" 
d="M940 879l-2 -1q16 -90 15 -148q0 -174 -59 -336q-52 -136 -141 -228q-91 -94 -207 -121q-110 -19 -201 21q-111 51 -186 170q-56 95 -82 208q-8 39 -17 113q-6 60 -2 127q10 158 66 297q44 97 100 168q73 89 168 133q57 28 114 29q134 12 250 -82q77 -62 133 -182
q35 -77 51 -168zM690 396l1 -2q76 142 76 338q1 34 -12 117q-17 87 -58 159q-35 56 -75 87q-77 51 -154 14q-41 -18 -72 -49q-50 -50 -82 -117q-62 -121 -72 -282q-2 -66 6 -129q12 -84 41 -150q39 -84 94 -127q51 -41 113 -33q44 4 90 42q64 50 104 132z" />
    <glyph glyph-name="one" unicode="1" horiz-adv-x="720" 
d="M485 281l-5 -16h41q29 1 81 6q12 2 25 -10q17 -17 24 -54q6 -43 0 -72q0 -3 -1 -6t-1 -6q-10 -37 -43 -37q-2 0 -3 -1t-3 -1q-41 0 -98 -4l-98 -6h-9q-86 -6 -102 -7q-13 -1 -44 -3q-40 -2 -44 -2q-41 -2 -54 33q-25 58 -7 120q7 16 15 22q8 8 15 8q2 0 26 2t29 2l33 3
q15 1 33 1q0 16 4 35q0 82 4 198q2 36 2 80t2 80q2 24 2 56q0 31 2 57q2 34 2 75q0 42 2 74q5 82 6 129l-13 -12q-50 -49 -78 -99q-20 -34 -57 -27q-66 13 -102 59q-23 27 -6 54q100 161 246 247q57 34 113 36q27 1 61 -9q13 -6 17 -22q16 -51 10 -117q-2 -26 -2 -62
q-4 -105 -4 -180q-4 -63 -4 -106q0 -42 -1 -75q-1 -50 -3 -75q0 -31 -1 -57q-1 -39 -3 -57q-2 -34 -2 -73q0 -48 -3 -73q0 -30 -1 -54z" />
    <glyph glyph-name="two" unicode="2" horiz-adv-x="886" 
d="M395 246l4 -3q3 0 15 2t21 3q24 3 34 3q2 0 9 1t14.5 2t15.5 2q27 3 41 3q63 7 90 9q2 0 9 1t14.5 2t15.5 2q9 1 23 3t19 2q9 0 15 1l18 3q12 2 17 3q20 1 36 -15q19 -26 20 -51q12 -47 2 -78q-2 -9 -6 -20q-10 -19 -27 -21l-48 -6q-31 -4 -48 -6q-25 -2 -84 -9
q-15 0 -39 -4t-42 -4q-68 -9 -88 -11q-2 0 -9 -1t-14.5 -2t-15.5 -2q-9 -1 -23 -3t-19 -2q-32 -1 -88 -9q-25 -4 -38 -4l-99 -12q-16 0 -27 14q-2 3 -4.5 8t-7 13.5t-7.5 14.5q-14 39 -21 51q-11 27 -13 59q0 17 19 30q77 46 172 144q81 88 145 189q124 184 180 360
q23 63 29 120q6 51 2 82q-5 19 -10 24q-6 6 -27 0q-32 -8 -75 -36q-84 -56 -156 -141q-20 -20 -47 -14q-21 7 -53 31q-37 33 -51 65q-12 23 9 42q89 95 174 156q84 58 161 78q61 13 115 0q92 -27 126 -121q25 -66 19 -152q-13 -160 -113 -370q-82 -171 -204 -328
q-19 -26 -65 -80q-9 -12 -15 -18z" />
    <glyph glyph-name="three" unicode="3" 
d="M602 1130l-4 2q0 2 6 29q-31 13 -73 6q-119 -18 -236 -108q-23 -19 -48 -3q-66 38 -84 108q-6 23 10 36q99 77 216 121q72 25 125 33q118 10 186 -33q77 -44 90 -133q13 -82 -39 -172q-46 -88 -150 -172l-6 -6q7 -2 14 -6q118 -45 198 -131q107 -107 129 -234
q33 -178 -74 -307q-90 -116 -256 -153q-56 -12 -111 -10q-115 4 -217 45q-118 50 -201 139l-10 10q-16 16 -7 42q2 8 9 17q43 58 99 75q27 6 43 -13q45 -52 119 -90q58 -29 119 -35q119 -17 206 33q86 50 101 133q13 78 -27 148q-29 55 -96 108q-83 57 -174 72
q-66 12 -129 -2q-27 -6 -47 14q-39 40 -45 101q-4 22 0 45q5 32 34 36q112 29 213 111q62 52 97 105q13 22 20 39z" />
    <glyph glyph-name="four" unicode="4" horiz-adv-x="845" 
d="M467 385l1 1q0 27 1 48t1 50q-24 0 -44 -1q-31 -2 -44 -3q-8 0 -15 -1t-15 -1q-16 -2 -51 -3q-46 -2 -51 -2q-86 -5 -129 -9q-33 -2 -45 27q-33 67 -4 135q10 28 42 24q4 8 6 15q52 135 76 190q51 121 145 254q71 101 144 177q18 18 56 47q10 10 35 18q24 7 36 -3t24 -39
q9 -36 20 -86q8 -33 -18 -47q-10 -8 -21 -19q-49 -49 -114 -141q-71 -98 -99 -153q-45 -83 -87 -198q26 1 80 3q53 2 77 3q4 36 4 60q0 23 17 29q17 10 30 12q63 8 99 -4l12 -6q28 -14 27 -48q0 -8 -1 -15t-1 -16q8 -2 16 -2q3 0 31 2t31 2q19 0 27 -14q14 -17 15 -36
q17 -53 0 -105q-11 -33 -43 -32q-36 -2 -82 -2q0 -7 -1 -13q-1 -8 -3 -13q0 -29 -2 -51v-84q-4 -47 -4 -78q-2 -26 -2 -60q-2 -36 -2 -80q-2 -26 -2 -63q0 -18 -18 -28q-22 -14 -54 -15q-38 -4 -73 8q-6 1 -24 11q-16 10 -16 30q0 28 1 51q2 35 3 51q0 17 1 31t1 31
q0 44 2 80q0 34 4 81z" />
    <glyph glyph-name="five" unicode="5" horiz-adv-x="999" 
d="M477 1169l3 3q-37 -110 -51 -149q63 17 137 12q45 -1 105 -24q109 -45 174 -146q44 -71 63 -160q5 -27 9 -88q6 -119 -39 -237q-50 -140 -150 -240q-111 -106 -236 -138q-172 -40 -309 57q-83 57 -126 162q-2 6 -6 14t-6 14q-6 17 4 33q14 18 41 32q46 23 90 23
q2 -2 8 -2q5 0 11 -2q14 -2 20 -18q18 -45 41 -71q57 -70 148 -66q57 2 114 36q88 51 150 162q43 75 55 165q14 104 -21 188q-33 74 -95 104q-68 33 -149 5q-38 -12 -76 -39q-19 -16 -45 -4q-28 14 -53 48q-12 26 -34 58t-31 52t-5 33l42 126q4 14 15 42q14 38 17 47
q8 23 16 42q14 31 19 41q12 22 18 32q8 14 20 24q11 10 21 11q14 0 42 3t33 3q97 10 121 10q7 0 28.5 2t36.5 3q16 1 37 3t26 2q41 2 122 9q34 2 48 -24q33 -68 8 -135q-6 -25 -33 -25h-3.5t-5 -0.5t-6.5 -1t-7 -0.5l-22 -2q-23 -2 -72 -6t-72 -6q-3 0 -7 -2
q-82 -3 -183 -15z" />
    <glyph glyph-name="six" unicode="6" horiz-adv-x="890" 
d="M362 795v1l-9 -18q14 0 42 4t48 4q144 0 244 -65q109 -72 145 -199q4 -8 9 -42q0 -3 2 -15l3 -18q1 -6 1 -16q6 -141 -60 -260q-63 -118 -188 -162q-43 -14 -92 -20q-45 -5 -68 -3q-115 4 -192 51q-85 51 -129 156q-28 63 -41 150q-20 147 30 320q50 170 177 356
q12 15 29 41q18 27 33 48q20 28 30 41q44 59 129 123q65 47 166 86q35 14 72 8q23 -5 29 -24q6 -32 6 -33q8 -48 2 -80q-2 -17 -12 -33q-12 -18 -29 -16q-3 0 -34 -11q-70 -28 -136 -86q-38 -33 -67 -75q-97 -137 -140 -213zM610 239v2q55 82 49 184q-5 46 -9 53
q-26 80 -106 111q-27 11 -82 15q-32 2 -75 -9q-67 -17 -105 -99q-2 -6 -9 -21q-6 -12 -12 -22q-4 -11 -4 -17q-1 -22 3 -67q4 -44 27 -103q12 -31 35 -54q38 -34 117 -39q41 -5 84 6q59 17 87 60z" />
    <glyph glyph-name="seven" unicode="7" horiz-adv-x="755" 
d="M549 1083q1 2 8 19q-60 -9 -108 -17q-31 -5 -102 -9q-43 -4 -129 -9q-16 0 -27 1t-24 1q-17 0 -30 1t-27 1q-27 -1 -37 24q-1 2 -2.5 8t-2.5 9q-3 12 -6 17q-8 49 -6 72q2 19 12 41q2 14 21 14h84q89 0 109 3q110 5 184 16q85 12 195 49q37 12 54 21q29 13 48 -12
q25 -23 45 -84q0 -4 2 -10q8 -23 -6 -53l-42 -84q-20 -44 -60 -129q-14 -30 -62 -129q-46 -92 -92 -187q-32 -67 -106 -220q-93 -192 -116 -241q-18 -38 -42 -86q-27 -53 -40 -85q-16 -31 -49 -30q-49 6 -97 39q-20 20 -26 33q-8 11 -2 27l6 13q7 14 34 69.5t47 97.5
t47 97.5t34 69.5q76 155 98 201t98 201q54 115 115 240z" />
    <glyph glyph-name="eight" unicode="8" horiz-adv-x="911" 
d="M594 717l-1 1q-5 -2 -12 -9q5 -8 29 -44q24 -35 32 -51q46 -72 66 -155q7 -49 6 -76q0 -17 -1 -36q-1 -29 -3 -42q-18 -90 -56 -150q-72 -115 -200 -153q-97 -27 -174 -2q-41 13 -74 37q-79 58 -107 133q-32 74 -21 158q7 112 80 231q38 66 78 111q24 26 55 57q1 1 4 3
q2 2 4 3q6 5 10 6q-17 25 -24 36q-5 12 -22 43q-25 46 -28 51q-23 42 -29 96q-18 133 51 241q72 112 205 146q116 31 225 -29q102 -53 135 -174q23 -85 -16 -188q-35 -97 -108 -158zM472 538l-2 -2q-14 20 -22 30q-15 20 -21 30q-53 -44 -90 -100q-55 -83 -70 -148
q-13 -58 0 -102q10 -32 42 -55q31 -23 63 -18l30 6q82 27 109 103q16 44 16 73q0 65 -10 95q-22 54 -45 88zM439 878h2q1 -5 9 -16q8 -10 9 -12q9 5 28 21t28 21q23 16 36 39q8 13 18 14q7 1 18 12q43 43 54 111q1 14 -3 42q-14 46 -69 60q-78 18 -139 -43q-71 -72 -33 -170
q7 -23 42 -79z" />
    <glyph glyph-name="nine" unicode="9" horiz-adv-x="950" 
d="M700 887l2 13q-24 -26 -51 -53q-95 -92 -240 -125q-57 -12 -117 -6q-110 10 -178 81q-41 46 -56 114q-12 90 41 176q57 95 168 156q78 41 159 53q104 16 189 -18q13 -6 60 -33l-2 6l-2 6q-6 20 10 36q11 11 27 21q44 26 96 24q6 0 10 -1t10 -3q17 -6 25 -24
q14 -59 21 -97q12 -78 15 -114q4 -39 4 -129q0 -58 -6 -119q-12 -120 -43 -234q-39 -149 -107 -272q-58 -108 -135 -184q-67 -67 -145 -92q-131 -50 -248 24q-5 1 -60 45q-19 16 -9 43q11 30 37 56q41 37 69 45q23 5 35 -9q6 -8 16 -14q39 -37 98 -16q34 12 72 47
q32 28 72 86q62 90 108 229q32 107 43 189l6 48q4 32 6 45zM278 908l-1 3q20 -4 26 -5q7 -1 16 -3t11 -2q61 6 112 29q74 33 113 92q17 18 18 43q5 23 -12 35q-11 8 -22 9q-39 13 -91 3q-103 -22 -171 -98q-23 -26 -26 -48q-13 -46 27 -58z" />
    <glyph glyph-name="colon" unicode=":" horiz-adv-x="428" 
d="M215 528v-3q51 4 91 -33t40 -96q0 -52 -37 -90q-38 -40 -94 -41q-59 -1 -96 39t-37 94t40 93t93 37zM215 927v-2q51 4 91 -33t40 -95q0 -52 -37 -90q-38 -40 -94 -41q-59 -2 -96 39q-37 40 -37 93t40 92t93 37z" />
    <glyph glyph-name="semicolon" unicode=";" horiz-adv-x="428" 
d="M215 930v-2q51 4 91 -33t40 -95q0 -52 -37 -90q-38 -40 -94 -41q-59 -1 -96 39t-37 93t40 92t93 37zM317 401l-1 1q8 -33 9 -73q0 -109 -90 -210q-20 -23 -60 -41q-23 -10 -39 3q-14 11 -21 25q-41 71 -35 111q5 21 16 29q34 20 42 75q4 37 -14 57q-14 16 -3 45
q17 45 55 72q23 15 39 22q25 10 49 -14q35 -35 53 -102z" />
    <glyph glyph-name="less" unicode="&#x3c;" horiz-adv-x="796" 
d="M737 999l-4 -2q1 -23 -18 -36q-29 -18 -66 -45q-59 -40 -177 -123t-177 -123l-4 -4q18 -20 57 -60q52 -54 58 -60q22 -22 84 -89q56 -60 87 -90q17 -20 9 -41q-2 -2 -8 -14q-7 -14 -10 -18q-20 -33 -54 -51q-12 -7 -31 -15q-22 -6 -39 11l-116 122l-18 18l-18 18
q-60 60 -98 114q-16 23 -48 60q-29 35 -42 53q-4 6 -21 32q-13 21 -18 27l-5 8q-12 19 9 36q37 31 101 79q52 39 124 88q79 54 105 73l209 147q27 20 54 2q63 -45 75 -117z" />
    <glyph glyph-name="equal" unicode="=" horiz-adv-x="595" 
d="M522 670l-1 -1q10 -19 15 -56q0 -46 -13 -73q-1 -8 -9 -21q-8 -14 -27 -14h-47l-147 6q-25 0 -47 1t-47 1q-59 4 -97 4q-23 0 -32 23q-11 27 -13 45q0 59 9 80q0 3 4 8t4 10q12 20 37 21q165 -6 180 -7q23 0 42 -1t44 -1q65 -4 110 -4q23 2 35 -21zM81 814l2 2
q-8 21 -8 29q-11 61 3 102l9 15q7 18 33 18q0 -2 41 0h43q167 -4 282 -4q29 -5 39 -25q10 -32 11 -39q8 -40 -7 -88q0 -2 -4 -9q-5 -7 -9 -12q-8 -13 -27 -15q-109 0 -108 3h-94q-46 0 -84 1t-85 1q-25 -1 -37 21z" />
    <glyph glyph-name="greater" unicode="&#x3e;" horiz-adv-x="796" 
d="M57 348l-2 -2q-4 25 18 37q11 6 33 21q12 8 33 23q270 190 355 248q0 2 2 2l2 4q-87 92 -115 120q-55 61 -171 180q-18 18 -10 41l18 36q16 26 57 51q17 7 30 12q23 7 39 -9q39 -44 117 -126q29 -29 36 -37q52 -48 98 -111q13 -18 45 -57q34 -42 45 -58q10 -13 20 -28
q13 -20 21 -28l2 -4q2 -2 2 -5q10 -19 -8 -38q-51 -42 -99 -77q-28 -20 -128 -90q-60 -42 -102 -70l-209 -147q-29 -23 -53 -3q-64 45 -76 115z" />
    <glyph glyph-name="question" unicode="?" horiz-adv-x="856" 
d="M793 1208l3 -3q4 -37 -5 -114q-11 -97 -78 -254q-13 -32 -47 -101l-35 -63q-31 -56 -41 -78q-33 -66 -72 -147q-50 -111 -54 -177q-5 -26 -13 -36q-9 -11 -33 -15q-90 -14 -131 27q-12 10 -13 31q8 111 69 237l74 160q11 19 33 60q21 39 27 46q91 177 119 285
q23 73 5 157q-18 85 -84 97q-111 20 -153 -75q-42 -94 -10 -234q5 -7 11 -30q2 -7 3.5 -14t3 -11t1.5 -6q4 -18 -27 -31q-32 -13 -63 -18q-35 -5 -51 -5q-27 -2 -36 24q-28 57 -39 102q-18 90 -7 177q10 85 66 156q92 121 222 147q86 18 170 -15q85 -33 131 -115
q42 -72 54 -164zM503 -13l-2 -1q0 -56 -40 -96t-99 -40q-52 0 -93 39q-40 39 -42 101q0 82 68 117q67 34 137 1t71 -121z" />
    <glyph glyph-name="at" unicode="@" horiz-adv-x="1671" 
d="M1577 1059l8 -5q5 -20 10 -107q0 -101 -24 -201q-40 -175 -146 -344q-6 -10 -18 -27t-18 -27q-8 -14 -26 -14q-72 6 -90 12q-55 22 -96 75q-50 66 -72 154q-4 32 -6 53q-7 -7 -12 -13t-12 -13q-54 -62 -123 -131q-17 -17 -31 -30q-6 -6 -18.5 -18t-18.5 -17
q-16 -15 -30 -27q-72 -66 -138 -90t-123 -9q-65 16 -103 84q-45 88 -18 195q25 88 81 160q53 75 111 119q65 50 160 82q56 16 86 21q100 12 177 -35q34 50 39 62q3 7 11 21q6 11 18 15q1 0 14 5t15 5q4 0 15 -4q7 -4 24 -18q10 -10 18 -17q12 -11 18 -15q25 -17 37 -45
q10 -25 -2 -39q-8 -12 -12 -31q-10 -59 -6 -120q1 -13 3 -47q2 -44 2 -47q4 -31 21 -58q1 4 8 18q5 10 11 18q45 90 72 209q23 120 2 231q-25 123 -109 190q-57 49 -141 66q-78 13 -162 -3q-125 -26 -236 -93q-120 -73 -217 -180q-137 -148 -209 -338q-37 -97 -48 -210
q-4 -70 3 -118q18 -100 62 -162q72 -98 196 -120q80 -12 164 4q132 27 255 109q29 16 48 0q17 -13 29 -24q40 -47 47 -92q1 -26 -18 -39q-122 -80 -244 -117q-96 -31 -182 -33q-180 -10 -320 80q-118 78 -177 215q-27 51 -39 121q0 10 -3 31q-1 5 -2.5 17t-2.5 17
q-12 101 8 221q34 185 146 369q52 88 111 157q120 140 267 238q120 76 240 112q91 29 186 30q143 6 267 -57q166 -86 234 -270q17 -46 29 -111zM653 464l-1 1q39 12 150 120t156 168q-6 2 -41 -3q-66 -14 -108 -42q-95 -57 -144 -166q-18 -44 -12 -78z" />
    <glyph glyph-name="A" unicode="A" horiz-adv-x="901" 
d="M662 217h-4q-134 0 -267 -8q-117 -7 -171 -14q0 -2 -2 -15t-3 -23q-1 -9 -3 -22t-2 -17q-4 -57 -9 -90q0 -26 -68 -37q-103 -7 -117 42q0 181 87 528q86 344 179 549q79 162 133 231q16 25 33 25h139q7 -1 60 -83q52 -80 78 -134q100 -216 127 -495q12 -113 4 -312
q-8 -196 -30 -299q-8 -41 -42 -41l-18 -2h-39q-27 0 -41 1q-23 2 -35 7q-13 6 -12 15q23 178 23 194zM252 389h-1q8 -1 194 8q48 2 102.5 5t81.5 4.5t38 1.5q0 4 0.5 10.5t1 18.5t0.5 22q2 39 0 59q-5 163 -22 262q-18 101 -63 220q-39 107 -76 148q-29 -55 -61 -123
q-138 -323 -195 -636z" />
    <glyph glyph-name="B" unicode="B" horiz-adv-x="1159" 
d="M434 84l-2 1q-16 0 -45 3t-35 3q-27 -49 -71 -67q-10 -4 -27 -10.5t-20 -7.5q-33 -6 -50 23q-32 51 -66 153q-70 225 -66 483q5 260 70 497q19 70 39 127q11 29 27 33q32 8 82 -7q51 -15 75 -39q2 -16 2 -18q0 -7 -7 -27q-8 -21 -9 -27q375 158 497 81q98 -59 66 -170
q-17 -52 -61 -108q-39 -47 -81 -83q-46 -39 -97 -75q-54 -37 -66 -48q193 0 301 -39q97 -33 168 -88q89 -70 106 -162q12 -71 -16 -139q-33 -79 -111 -137q-118 -89 -258 -121q-137 -31 -345 -31zM252 837l-1 -1q13 0 107 49q99 52 132 73l36 27q24 18 48 34q9 6 43 32
q24 18 42 38q15 17 27 35q-63 28 -241 -57q-179 -85 -183 -138zM355 582h-1q-75 -26 -114 -47q8 -63 9 -91q0 -13 22 -132q6 -45 144 -45q135 0 292 35q155 34 213 78q34 28 51 57q27 44 -29 88q-33 28 -84 47q-105 44 -255 44q-153 0 -248 -34z" />
    <glyph glyph-name="C" unicode="C" horiz-adv-x="831" 
d="M131 1120l-4 -4q41 100 111 177q72 76 161 99q107 23 200 -34q94 -57 158 -168q9 -18 16 -31q11 -19 15 -27q11 -20 -3 -35q-19 -26 -60 -46q-40 -19 -73 -18q-29 5 -36 25q-45 98 -100 135q-100 66 -196 -104q-40 -78 -63 -177q-43 -171 -19 -381q24 -209 108 -321
q17 -27 43 -51q73 -66 152 8q41 41 77 119q28 59 50 147q6 26 28 30q35 11 62 3q39 -10 45 -12q17 -7 37 -24q16 -12 10 -33q-23 -93 -42 -143q-53 -130 -123 -203q-65 -70 -143 -94q-98 -32 -191 12q-82 34 -144 119q-91 122 -131 300q-43 161 -28 372q15 209 83 360z" />
    <glyph glyph-name="D" unicode="D" horiz-adv-x="1120" 
d="M326 1251l-16 -44q9 1 28 6q28 7 33 8q22 4 27 5q56 8 90 9q72 5 123 -3q157 -22 267 -108q156 -117 192 -307q10 -51 6 -129q-8 -117 -66 -225q-46 -87 -127 -164q-143 -133 -333 -177q-44 -9 -115 -17q-23 -1 -93 3q-9 0 -25 -11q-37 -41 -96 -54q-41 -8 -53 18
q-30 58 -53 136q-51 169 -54 419q-3 247 32 434q13 78 55 255q6 27 37 30q67 6 129 -39q22 -18 12 -45zM267 996l-3 -1q-53 -400 4 -678q4 -25 94 -28t135 9q167 38 276 159q67 68 92 149q33 95 17 177q-29 156 -182 230q-24 11 -59 19q-32 8 -61 9q-30 1 -67 0t-63 -6
q-8 -1 -28 -4.5t-32 -5.5q-40 -7 -51 -10q-17 -5 -42 -12q-24 -7 -30 -7z" />
    <glyph glyph-name="E" unicode="E" horiz-adv-x="677" 
d="M57 1014l-4 -2q31 302 69 309q30 8 72 8q64 0 203 4q156 5 162 6q32 4 43 -26q8 -26 12 -49q5 -39 -3 -68q-1 -2 -4.5 -11.5t-5.5 -15.5q-8 -14 -26 -14q-40 0 -103 -4q-73 -4 -123 -4q-54 0 -90 -4q0 -12 -4 -31q-5 -22 -6 -31q-1 -19 -6 -60t-6 -60q-23 -232 -11 -375
l213 49q35 8 51 -19q38 -56 30 -123q-2 -31 -33 -39q-67 -20 -151 -36t-97 -21q-5 -85 18 -192q231 -33 338 20q17 8 36 -4q18 -11 39 -42q28 -45 27 -90q0 -23 -22 -35q-124 -52 -358 -42q-233 10 -241 84q-64 478 -19 918z" />
    <glyph glyph-name="F" unicode="F" horiz-adv-x="569" 
d="M248 549l1 -1q28 7 91 24t91 24q31 8 51 -18q37 -55 31 -123q-1 -31 -33 -39q-26 -5 -207 -56l-6 -2l-6 -2l6 -49q13 -70 17 -95l15 -93q2 -19 9 -41q6 -27 -12 -41q-18 -15 -36 -23q-45 -20 -84 -18q-7 0 -12 1q-8 1 -12 3q-20 6 -27 27l-18 98q-50 225 -51 472t39 577
q1 6 3 17.5t3.5 22t3.5 20.5q4 24 7 45q2 14 7 27q6 15 9 18q4 4 18 8q17 5 28 5h42l166 7q51 0 131 4q21 0 39 2q25 6 42 -23q16 -29 15 -69t-15 -78q-8 -14 -27 -15q-59 -4 -102 -4q-160 -8 -182 -9q-1 -16 -11 -60q-2 -21 -18 -187q-23 -209 -6 -356z" />
    <glyph glyph-name="G" unicode="G" horiz-adv-x="1060" 
d="M991 479l1 -2q-26 10 -81 19q0 -137 -88 -288q-57 -96 -133 -154q-62 -46 -138 -60q-113 -20 -219 43q-73 41 -137 135q-62 92 -96 207q-21 81 -26 121q-12 116 -13 118q-6 170 38 337q44 166 138 272q59 67 126 99q127 61 256 10q1 0 3 -1t6 -2.5t7 -2.5l16 -6
q23 -12 21 -39q-2 -37 -30 -81q-17 -29 -43 -45q-20 -12 -39 -2q-35 23 -75 17q-16 -1 -49 -18q-42 -26 -82 -80q-67 -102 -92 -234q-13 -94 -14 -127q-6 -79 4 -160q22 -131 77 -244q54 -110 128 -130q57 -19 114 18q51 37 88 100q41 72 60 190q-54 0 -129 -22
q-20 -6 -35 12q-35 45 -39 102t27 67q277 74 477 17q32 -11 17 -93q-15 -83 -46 -93z" />
    <glyph glyph-name="H" unicode="H" horiz-adv-x="937" 
d="M240 475l428 -9q55 328 43 561q-5 151 -27 221q27 38 88 75q29 18 48 -10q66 -95 72 -351q6 -259 -34 -514q-40 -257 -102 -379q-1 -4 -5 -12t-6 -13q-5 -12 -5 -13q-14 -33 -51 -27q-29 6 -61 23q-35 18 -53 41q-17 22 -6 45q17 39 35 90q21 59 21 78l-177 3
q-158 2 -170 2q1 -31 9 -55q7 -24 18 -45q10 -19 13 -31q-28 -44 -75 -70q-47 -25 -75 6q-131 209 -129 566q1 356 105 631q12 33 48 31q70 -6 118 -55q18 -18 8 -43q-44 -114 -67 -228q-25 -109 -28 -256q-3 -142 17 -262z" />
    <glyph glyph-name="I" unicode="I" horiz-adv-x="534" 
d="M344 276v2q2 -20 6 -59l25 12q17 11 36 0q1 -1 9 -6q57 -41 72 -105q8 -32 -21 -48q-54 -34 -126 -47q-84 -13 -139 -12q-76 4 -133 24q-27 8 -29 35q-2 14 0 30q10 57 39 90q3 4 12 13q14 14 35 8q28 -6 33 -4v24q-1 29 -9 96q-35 320 -11 735q1 13 3 44q2 40 2 44h-51
q-32 -6 -42 25q-8 18 -9 34q-8 63 6 92q2 2 5 9q3 8 7 12q10 13 25 12q6 1 10 0q143 2 288 0q33 1 43 -27q10 -30 10 -39q0 -62 -6 -81q0 -5 -10 -24q-12 -16 -31 -16h-57q-4 -17 -4 -27v-6q-1 -7 -1.5 -21t-0.5 -30q0 -9 -5 -135q-2 -57 -4 -174q-1 -94 3 -199
q5 -106 12 -191q0 -17 4 -44t4 -46z" />
    <glyph glyph-name="J" unicode="J" horiz-adv-x="829" 
d="M793 1151l-4 1l-33 6t-36 6q19 -95 25 -121q18 -111 18 -256q0 -321 -104 -555q-50 -113 -115 -177q-66 -61 -135 -75q-83 -14 -153 28q-71 42 -116 120q-49 79 -84 203q-10 40 41 63q52 23 102 17q31 -4 37 -33q19 -75 47 -129q23 -41 45 -63q38 -38 78 -3
q88 79 132 269q12 61 26 138q4 28 9 93q5 33 6 195q-6 122 -39 246q-6 16 -24 70h-121q-97 -5 -215 -36q-26 -6 -39 12q-23 27 -33 69t-3 75q1 16 23 22q200 45 354 43q150 -1 353 -47q26 -6 30 -31q13 -49 -9 -105t-63 -45z" />
    <glyph glyph-name="K" unicode="K" horiz-adv-x="890" 
d="M510 446l-2 -2q-29 34 -75 56q-82 -60 -201 -109q0 -13 -1 -25t-1 -28q0 -258 -4 -273q-6 -29 -67 -36q-51 -6 -92 12q-27 12 -27 41q0 1 0.5 31.5t2 103t2.5 156.5q5 287 9 570q1 84 2.5 154.5t2 99.5t0.5 28q-4 25 24 37q57 27 113 12t51 -54q-4 -51 -4 -86
q0 -31 -4 -216t-4 -223v-98q21 13 33 20q14 8 29 17q103 63 192 168q110 134 144 274q19 86 9 153q-2 18 9 29q31 31 133 30q11 0 27 -8q15 -8 15 -21q0 -192 -40 -321q-41 -131 -151 -253q-20 -23 -49 -57q35 -30 47 -45q148 -169 194 -357q19 -78 21 -116q0 -23 -21 -35
q-45 -27 -98 -21q-6 0 -45 13q-22 7 -21 30q0 70 -48 178t-105 171z" />
    <glyph glyph-name="L" unicode="L" horiz-adv-x="692" 
d="M252 213l-4 3q65 -8 110 -2q8 2 27 3q13 1 27 1q57 6 102 27q17 6 37 22q11 11 31 10q74 -17 114 -72q4 -5 9 -18q8 -17 -4 -33q-29 -41 -81 -68q-60 -34 -138 -47q-98 -18 -192 -16q-104 5 -195 27q-23 6 -27 31q-4 15 -4 495q0 99 -1 215q-1 174 -3 282q-4 139 -4 234
q0 27 23 39q9 5 31 10q54 10 94 -2q6 -2 13 -5t8 -3q17 -12 19 -33v-39q0 -260 4 -635q4 -153 4 -426z" />
    <glyph glyph-name="M" unicode="M" horiz-adv-x="1019" 
d="M737 915l-1 1q-25 -40 -55 -84q-49 -72 -55 -81q-10 -16 -30 -53q-17 -30 -27 -46q-3 -5 -10 -16t-9 -14q-10 -16 -18 -24t-15 -9q-53 -12 -78 -6q-17 1 -22 21q-33 98 -123 405l-6 -31q-2 -11 -6.5 -35t-6.5 -37q-7 -40 -9 -60q0 -2 -2 -16.5t-3 -25.5t-3 -25.5
t-2 -16.5q-8 -98 -9 -147q-1 -66 0 -129q1 -44 9 -129q14 -119 60 -231q10 -26 -3 -45l-24 -24q-49 -39 -102 -39q-29 0 -39 25q-35 80 -53 158q-12 50 -24 139q-27 184 0 436q20 232 90 467q1 7 6 24t6 24q5 13 21 17l172 16q32 2 39 -27q11 -35 45 -161q58 -214 65 -222
q10 19 44 70q24 36 46 70q11 16 40.5 61t43.5 66q61 92 84 125q18 29 51 20q44 -12 82 -45q26 -22 29 -25q29 -28 21 -42q-17 -54 -34 -316q-16 -261 -12 -372q0 -63 7 -116q5 -67 9 -95q8 -79 24 -155q4 -16 5 -21q3 -15 6 -21q6 -32 -19 -45q-28 -19 -65 -27
q-41 -6 -66 -2q-28 7 -33 35q-45 231 -51 392q-6 166 10 444z" />
    <glyph glyph-name="N" unicode="N" horiz-adv-x="995" 
d="M281 942l-10 -2q-10 -60 -25 -180q-38 -348 33 -606q1 -7 8 -30q7 -24 8 -27q12 -58 4 -70q-7 -12 -60 -18q-55 -10 -82 -9q-27 2 -33 27q-33 106 -36 118q-38 144 -40 385q-1 237 32 394q8 66 39 195q32 130 51 176q6 18 27 17q17 -3 62 -10l45 -6q12 -1 27 -5
q12 -3 16 -7q5 -5 6 -10q17 -45 74 -210q17 -50 48 -147t48 -147l66 -192q84 -230 115 -265q2 5 3 37q1 33 3 84q1 34 1 72q0 103 4 252q5 99 9 149l6 99q4 46 9 132q4 32 7 114q3 76 -1 94q54 20 153 20q25 0 30 -20q0 -1 3 -22t3 -31q4 -41 0 -84q0 -8 -7 -99
q-6 -75 -13 -205q-6 -108 -6 -129q-4 -76 -4 -129q-4 -149 -4 -252q-2 -90 -2 -204q0 -27 1 -48t1 -48q0 -21 -4 -54q0 -13 -18 -18q2 0 -34 -9q-24 -6 -74 -18q-11 -3 -21 -5.5t-17 -4.5l-6 -1q-14 -1 -24 9q-42 39 -92 123q-102 169 -192 405q-23 66 -113 346z" />
    <glyph glyph-name="O" unicode="O" horiz-adv-x="839" 
d="M96 1042l1 -2q40 96 94 165q77 89 166 120q119 37 225 -30q58 -37 105 -105q61 -84 96 -213q47 -168 32 -360q-15 -193 -87 -339q-34 -82 -90 -142q-68 -79 -141 -104q-131 -46 -246 30q-82 52 -141 164q-86 174 -89 403q-3 231 75 413zM595 438l-1 2q44 143 39 299
t-57 279q-38 77 -79 111q-53 41 -111 6q-37 -25 -55 -57q-35 -44 -57 -99q-72 -171 -65 -378q8 -209 93 -332q32 -44 64 -60q33 -18 67 -2q26 7 64 45q58 65 98 186z" />
    <glyph glyph-name="P" unicode="P" horiz-adv-x="915" 
d="M348 475l1 -3q-20 -7 -51 -14l-51 -12q0 -296 55 -405q12 -19 -2 -41q-17 -28 -51 -47q-35 -20 -67 -24q-28 -1 -42 24q-25 42 -43 115q-12 44 -24 133q-20 198 -11 381q10 173 27 295q33 210 57 311q5 21 41 156q8 33 42 32q57 2 111 -30q13 -6 22 -5q51 17 123 24
q137 17 252 -27q149 -52 187 -179q38 -126 -33 -267t-216 -252q-149 -112 -327 -165zM263 763l-2 -2q-7 -83 -9 -123q39 0 126 40q90 41 140 75q109 76 172 160q50 66 60 126q10 63 -36 99q-22 16 -45 24q-57 22 -168 15q-74 -8 -158 -39q-20 -6 -23 -23q-6 -41 -16 -97
l-18 -96q-18 -119 -23 -159z" />
    <glyph glyph-name="Q" unicode="Q" horiz-adv-x="1048" 
d="M883 -45l-1 1q6 -10 29 -36q21 -24 45 -33q33 -11 33 -51q0 -56 -24 -99t-51 -33q-19 6 -42 16q-62 28 -102 75zM648 525l1 3q10 -23 41 -102q39 66 72 168q43 132 43 262q0 141 -41 237q-32 73 -69 104q-49 40 -100 39q-45 -4 -78 -24q-59 -35 -110 -98
q-72 -90 -111 -205q-16 -49 -21 -60q147 -26 238 -115q72 -72 135 -209zM246 670l-1 3q0 -202 56 -329q56 -126 180 -101q37 7 63 27q-13 39 -25 72q-20 55 -24 65q-9 23 -20 53q-14 39 -21 50q-8 12 -21 39q-14 28 -25 36q-12 9 -30 27q-19 19 -37 26q-5 2 -19.5 8t-23.5 9
q-25 9 -52 15zM769 -198l-2 -5q-1 4 -6 10l-6 8q-71 91 -99 149q-33 70 -45 105l-6 18l-27 -9q-18 -6 -34 -12q-137 -41 -245 19t-174 195q-76 159 -70 361q11 209 88 395q50 119 132 215q103 122 228 160q61 18 127 12q95 -7 174 -74q97 -80 143 -216q26 -77 37 -168
q32 -315 -111 -585q-64 -120 -112 -168l43 -117q19 -61 78 -133z" />
    <glyph glyph-name="R" unicode="R" horiz-adv-x="960" 
d="M326 1311l-2 3q2 0 7.5 2t16.5 5.5t22 6.5q35 10 63 16q89 25 166 19q115 -7 186 -57q112 -88 105 -220q-7 -131 -119 -250q-95 -102 -264 -189q2 -1 28 -12q24 -11 36 -18q151 -73 246 -225q62 -95 94 -235q5 -17 9 -51q1 -27 -21 -40q-34 -19 -80 -23q-31 -1 -57 6
q-23 8 -29 35q-18 155 -117 268q-79 91 -162 116q-85 26 -207 11q0 -91 18 -221q18 -129 41 -177q10 -23 -6 -42q-34 -43 -102 -57q-14 -4 -30 0q-23 0 -29 22q-2 4 -10 29l-11 33q-6 20 -9 29q-19 65 -29 154q-45 416 12 821q17 135 55 238q7 26 15 36q14 33 48 27
q100 -11 114 -33q6 -11 2 -27zM279 1086v-2q-27 -170 -33 -312q18 -4 55 3q95 18 172 64q128 65 199 170q78 118 -25 155q-29 10 -69 12q-37 1 -88 -9q-92 -19 -177 -66q-5 -4 -17 -9q-10 -4 -17 -6z" />
    <glyph glyph-name="S" unicode="S" horiz-adv-x="899" 
d="M831 934l-3 -8q-26 -12 -49 -12q-44 -6 -80 8q-39 14 -30 53q14 125 -63 182q-65 57 -154 49q-88 -7 -148 -72q-43 -46 -67 -117q-24 -69 -16 -132q12 -91 72 -152q50 -54 141 -106q33 -18 164 -93q33 -17 87 -61q57 -46 78 -70q61 -72 79 -152q18 -78 -25 -160
q-71 -119 -210 -143q-121 -19 -235 39q-106 58 -154 171q-17 39 30 68t105 29q25 0 36 -24q31 -82 127 -103q45 -8 86 6q33 14 51 39q18 26 6 50q-39 95 -216 187q-2 1 -22.5 13t-36.5 21q-14 8 -32.5 19t-23.5 14t-45 29q-32 21 -47 33q-18 14 -40 34q-22 19 -43 45
q-17 21 -39 53q-94 139 -69 318t141 291q129 121 298 117q170 -5 291 -138q59 -68 80 -177t-24 -148z" />
    <glyph glyph-name="T" unicode="T" horiz-adv-x="528" 
d="M168 1214h3q-83 -4 -213 -21q-18 -6 -27 15t-9 41q0 80 2 94q8 28 36 35q104 26 297 24t333 -27q33 -8 23 -75q-11 -68 -36 -93q-10 -16 -33 -10q-61 17 -187 19q0 -28 -1 -81t-1 -108q2 -41 0 -125q-1 -84 0 -127v-237q0 -69 -1 -126t-1 -126q4 -121 0 -238
q0 -33 -30 -45q-57 -22 -121 0q-31 12 -33 47v84v166q0 94 2 164q2 41 0 122t0 122t0 122t0 122q2 59 0 155q-2 97 -3 107z" />
    <glyph glyph-name="U" unicode="U" horiz-adv-x="999" 
d="M936 692h-3q-17 -214 -75 -375q-40 -112 -104 -194q-111 -134 -248 -117q-136 16 -246 168q-56 87 -106 216q-44 121 -70 256q-31 214 -31 334q0 118 27 332q2 27 29 32q21 8 53 5q57 -7 86 -29q20 -17 14 -43q0 -5 -12 -102q-13 -115 -6 -265q7 -149 33 -265
q23 -112 57 -203q40 -111 98 -183q118 -147 213 33q43 76 69 183q21 104 26 147q33 205 -8 471q-11 78 -35 174q-11 41 21 59q56 37 117 31q31 -1 39 -33q22 -76 39 -177q33 -243 23 -455z" />
    <glyph glyph-name="V" unicode="V" horiz-adv-x="966" 
d="M373 -78l-1 -2q-18 18 -31 37q-40 57 -80 150t-78 218q-67 219 -105 524t-12 506q12 41 71 39t99 -27q17 -14 15 -35q-13 -172 12 -453q8 -79 42 -269q29 -150 87 -327q20 -63 45 -111q50 169 101 322q117 381 240 751q2 6 5 15.5t8.5 26t9.5 29.5q17 51 24 78
q6 18 23 27q16 9 30 4q59 2 110 -39q27 -16 15 -52q-4 -10 -37 -117q-16 -59 -98 -304q-20 -59 -43.5 -130.5t-35 -105.5t-16.5 -49q-28 -85 -94 -301q-54 -170 -119 -385q-6 -20 -72 -26t-115 6z" />
    <glyph glyph-name="W" unicode="W" horiz-adv-x="1406" 
d="M74 977l-7 -3q46 211 86 291q12 27 37 26q70 0 127 -51q20 -18 8 -47q-47 -107 -75 -261q-56 -302 -12 -459q26 -92 59 -113t90 28q63 56 117 153q85 157 129 323q6 25 27 125q0 3 1 6q1 5 3 18q2 18 3 26q1 12 3 27q2 20 3 29t3 25q1 8 1 18l2 6q0 17 48 26q50 9 98 5
q50 -5 50 -16q0 -34 -25 -166q-28 -156 -36 -299q-8 -142 27 -285t123 -192q66 -13 117 56q52 70 77 188t36 254q11 135 0 263t-39 206q-1 34 42 48t87 6t44 -30q31 -133 34 -318q3 -183 -21 -366q-24 -182 -101 -324q-76 -140 -192 -166q-133 -40 -234 68
q-100 108 -165 311q-98 -148 -189 -203q-77 -45 -144 -43q-83 5 -139 55q-78 71 -111 208q-33 138 -27 275q6 134 35 272z" />
    <glyph glyph-name="X" unicode="X" horiz-adv-x="909" 
d="M535 293h3q-16 31 -48 90t-48 87q-16 -34 -45 -99q-20 -44 -80 -174l-10 -22.5t-15 -33.5t-16 -35q-25 -57 -42 -88q-10 -22 -19 -28q-8 -6 -36 -4q-61 6 -108 53q-19 19 -6 51l68 148q91 200 145 315l24 54q22 48 25 54q9 19 -1 35q-13 24 -31 58.5t-45 85t-47 88.5
q-87 165 -105 197l-49 93q-19 38 36 75q53 35 93 35q28 0 35 -22q181 -345 186 -355q19 -37 33 -57q5 8 133 289q31 67 54 120q13 29 45 27q66 -6 116 -53q23 -20 9 -53q-49 -104 -147 -318q-48 -103 -98 -213q0 -2 -4 -9q8 -14 30 -56l30 -57q10 -21 65 -123
q56 -104 77 -147q12 -24 60 -112q47 -87 59 -112q17 -31 -6 -57q-39 -43 -100 -55q-11 -1 -18 -3t-15 0q-7 1 -10 3q-4 2 -9 10q-7 11 -8 13l-9 18l-12 21q-55 110 -139 266z" />
    <glyph glyph-name="Y" unicode="Y" horiz-adv-x="872" 
d="M508 616l-1 -2q67 119 110 273q25 80 37 171q12 110 11 165q0 5 -2 25q-1 14 -3 22q-1 5 -1 16v15q0 5 2 11l3 9q2 5 3 6q17 17 39 24q52 17 96 9q43 -10 43 -51q10 -86 4 -165q-14 -259 -129 -512q-76 -172 -195 -324q-113 -146 -252 -240q-103 -70 -132 -70
q-18 0 -30 12q-53 52 -54 120q0 29 25 39q99 47 188 132q53 51 101 107q10 12 4 30q-16 49 -39 113q-27 76 -36 98q-38 102 -87 243q-3 9 -83 234q-10 27 -18.5 51t-12.5 35t-4 12q-10 31 15 49q39 33 90 39q57 11 71 -24q25 -77 84 -241q7 -20 27 -76t32 -89
q43 -121 65 -188z" />
    <glyph glyph-name="Z" unicode="Z" horiz-adv-x="856" 
d="M244 162l-1 -3q68 -12 143 -8q72 5 99 10q131 27 183 67q27 22 67 -6q41 -26 68 -63q23 -35 0 -57q-46 -46 -131 -81q-76 -32 -174 -46q-158 -19 -304 -7q-143 12 -154 44q-12 38 4 115q34 156 37 164q44 166 142 344q100 182 285 440q-35 18 -155 11q-119 -7 -193 -33
q-26 -7 -51 30q-43 57 -48 101q-2 28 22 38t78 21q37 6 111 15q92 12 210 6q41 -1 183 -23q32 -5 65 -16q25 -7 40 -59q15 -51 -3 -75q-31 -35 -123 -146q-160 -193 -277 -412t-123 -371z" />
    <glyph glyph-name="bracketleft" unicode="[" horiz-adv-x="555" 
d="M483 1444l-8 -1q18 -35 15 -80q-1 -9 -6 -28l-6 -24q-1 -5 -9 -19q-12 -14 -33 -14q-54 2 -123 2q-1 0 -3 -2q-20 -84 -24 -100l-24 -123q-26 -147 -21 -375q4 -226 44 -372q7 -26 14 -42q13 -2 72 4q49 6 84 -6q16 -6 16 -24q0 -29 -2 -51q0 -6 -18 -63q-1 -1 -3 -8
q-2 -8 -3 -11q-7 -17 -30 -21q-17 0 -42 -4q-18 -2 -120 -2q-8 -2 -41 1q-35 3 -39 13q-59 112 -86 321q-27 210 -21 410q6 196 32 336q29 176 66 287q6 20 94 20h191q24 1 34 -24z" />
    <glyph glyph-name="backslash" unicode="\" horiz-adv-x="733" 
d="M63 1288l-3 -3q6 12 15 21q47 40 117 45q39 0 51 -39q419 -1178 423 -1194q10 -27 -6 -39q-14 -13 -18 -15q-33 -21 -57 -29q-31 -7 -63 -6q-20 0 -26 18q-2 6 -6 14t-4 14q-78 231 -381 1071q-2 7 -16.5 48t-25.5 73q-5 11 0 21z" />
    <glyph glyph-name="bracketright" unicode="]" horiz-adv-x="555" 
d="M82 104l4 3q-18 43 -12 78q2 19 9 51q1 5 9 19q11 14 33 14q54 -2 123 -2l2 2h4q13 57 21 101q10 40 24 122q27 152 21 378t-45 369q-1 6 -6 21q-4 14 -6 23q-29 2 -74 -6q-49 -5 -84 6q-16 6 -16 25q0 29 2 53l19 61q0 2 3 9q1 2 2.5 6t2.5 6q12 18 33 18q17 0 42 4
q20 4 65 4h53q74 0 80 -16q59 -112 86 -321q27 -207 22 -409q-5 -199 -30 -339q-34 -188 -68 -285q-8 -23 -92 -21q-88 2 -192 2q-27 -2 -35 24z" />
    <glyph glyph-name="underscore" unicode="_" horiz-adv-x="679" 
d="M584 188v-2q10 -26 15 -57q1 -33 -9 -72q-12 -38 -35 -36q-22 0 -64 -1t-112 -1h-83h-92q-46 1 -96 0q-22 0 -33 23q-33 68 0 141q8 23 33 23q118 4 180 3h88h172q28 -1 36 -21z" />
    <glyph glyph-name="grave" unicode="`" horiz-adv-x="342" 
d="M502 1473h-1q-127 102 -226 307q-29 58 63 78q84 18 135 -9q16 -7 16 -20q0 -39 35 -117q34 -76 99 -123l4 -6q2 -23 -43 -70t-82 -40z" />
    <glyph glyph-name="a" unicode="a" horiz-adv-x="937" 
d="M877 655l1 -1q6 -76 2 -217q0 -12 -11 -105q-13 -112 -41 -205q-10 -30 -17 -53q-11 -37 -15 -47q-8 -29 -39 -29q-26 0 -37 4q-45 10 -72 33q-27 19 -33 47q-78 -38 -147 -51q-50 -7 -75 -9q-37 -4 -54 -6q-102 5 -177 43q-97 53 -119 153q-29 125 84 248q84 90 216 141
q133 51 253 41l48 -6t45 -6q-4 48 -9 76q-6 51 -18 108q-38 163 -97 262q-49 82 -124 85t-135 -60t-66 -159v-27q0 -23 -1 -33q-1 -14 -6 -28q-7 -32 -63 -37q-48 -4 -81 8q-39 18 -27 123q12 104 59 191q67 124 169 170q104 47 204 20t189 -117t129 -223q34 -114 47 -201
q14 -97 18 -133zM626 452h-1q-49 14 -123 3q-75 -12 -154 -56q-43 -22 -82 -62q-38 -39 -39 -76q-4 -18 20 -33q23 -14 58 -19q34 -4 67 -3q65 1 129 29q88 34 145 96q84 89 -20 121z" />
    <glyph glyph-name="b" unicode="b" horiz-adv-x="1058" 
d="M993 395l-1 -2q-34 -90 -143 -162q-107 -71 -226 -109q-83 -26 -142 -33q-97 -12 -126 -6q-7 1 -12 -9l-9 -15q-4 -7 -12 -13l-12 -10q-4 -4 -15 -9q-10 -5 -13 -7q-3 -3 -16 -9t-15 -8q-37 -16 -55 14q-121 194 -130 618q-9 421 86 691q12 39 75 21q49 -17 81 -48
q27 -27 15 -49q-52 -97 -71 -285q-20 -191 1 -308q142 75 249 110q111 36 225 32q99 -5 159 -31q96 -44 123 -163q27 -121 -16 -210zM820 465l-1 -2q37 91 -17 126t-183 12q-109 -18 -213 -72q-71 -37 -115 -87q-12 -14 -8 -66q5 -52 21 -99q43 -28 143 -10q98 18 203 65
q143 68 170 133z" />
    <glyph glyph-name="c" unicode="c" horiz-adv-x="890" 
d="M862 383l-2 -1q12 -12 6 -29q-50 -194 -199 -279q-150 -85 -316 -21q-102 43 -180 123q-131 142 -131 410q6 276 168 495q71 95 172 156q79 41 147 41q73 0 138 -49q119 -109 96 -288t-147 -281q-2 -2 -6 -4t-5 -3q-6 -4 -9 -5q-4 -2 -9 0q-3 1 -6 1q-2 0 -9 4q-8 5 -9 7
q-2 4 -12 11q-11 7 -15 12q-58 76 -42 100q135 201 67 291q-32 45 -103 -7t-127 -138q-66 -102 -90 -234q-31 -134 5 -261q36 -126 134 -183q28 -17 45 -24q84 -38 158 12q73 49 108 153q6 27 35 33q86 11 138 -42z" />
    <glyph glyph-name="d" unicode="d" horiz-adv-x="907" 
d="M909 928l-4 -2q0 -382 -24 -513l-13 -92q-2 -17 -6 -48q-5 -33 -6 -46l-37 -166q-10 -45 -61 -39t-92 35q-4 3 -13 12q-20 14 -14 41q18 68 18 77q-15 -6 -27 -13q-16 -9 -30 -15q-15 -6 -25 -13q-88 -43 -185 -55q-55 -8 -111 -2q-124 11 -197 87q-47 53 -59 119
q-27 156 114 300t335 189q80 20 170 15q19 -2 41 -7t39 -7v156q-8 193 -60 306q-14 31 15 51q45 39 96 54q6 2 16 2q18 2 24 -3q7 -5 14 -24q65 -135 82 -399zM692 481h-1q17 33 18 78q-11 46 -88 53q-66 0 -101 -8q-151 -35 -254 -141q-63 -71 -63 -133q1 -31 41 -45
q31 -16 78 -13q40 -2 84 12q115 28 202 99q55 46 84 98z" />
    <glyph glyph-name="e" unicode="e" horiz-adv-x="968" 
d="M936 825h-6q6 -31 -21 -51q-57 -42 -79 -57q-25 -17 -70 -40q-41 -21 -99 -40q-119 -39 -192 -45q-91 -10 -119 -10h-2h-2h-2h-2h-2h-2h-2h-2h-2h-2h-2h-4h-2h-2h-2h-3h-4h-2h-4h-2h-2h-4h-2h-4h-2h-4h-4h-2h-4h-5h-2h-4h-4h-2h-4h-4h-4h-4h-4h-4h-5h-4h-16
q19 -142 86 -243q45 -72 123 -111q52 -27 113 -20q50 5 105 49q30 24 43 39q13 18 39 12q84 -26 108 -84q10 -25 -6 -43q-64 -79 -147 -119q-67 -33 -158 -36q-131 -6 -261 94q-118 92 -186 261q-47 120 -50 287q-3 168 42 293q32 88 86 157q96 121 238 154q124 27 236 -25
q127 -57 216 -188q73 -110 100 -234zM727 864l-1 3q-13 28 -37 70q-35 66 -99 117q-45 34 -104 45q-80 12 -146 -37q-59 -45 -93 -115q-38 -81 -49 -177q20 -5 72 -7q50 -2 62 0q98 8 143 15q172 27 252 86z" />
    <glyph glyph-name="f" unicode="f" horiz-adv-x="620" 
d="M676 1159h-5q25 -118 -47 -233q-4 -6 -6 -12q-1 -4 -5 -10q-1 -1 -2.5 -3.5t-2.5 -3.5q-2 -3 -5 -5q-2 -1 -4 -3q-1 -1 -6 -1h-6h-8h-9q-43 6 -82 24t-39 44q0 10 24 67t18 86q-7 57 -60 66q-57 6 -114 -82q-57 -89 -81 -189q-28 -124 -30 -269q-2 -144 33 -230
q221 71 229 77q27 12 47 -12q45 -55 43 -127q-2 -29 -30 -39q-102 -33 -153 -51q-9 -2 -29 -9q-28 -10 -34 -12q34 -42 111 -110q1 -1 15 -13q11 -9 11 -10q0 -3 4 -12q4 -10 -2 -18q-6 -24 -19 -41q-33 -52 -78 -68q-22 -4 -36 8q-90 78 -129 123q-37 43 -73 115
q-79 165 -91 376q-12 208 44 394q45 160 125 258q84 106 201 124q118 18 206 -64q55 -50 75 -135z" />
    <glyph glyph-name="g" unicode="g" horiz-adv-x="917" 
d="M918 1208v4q-58 -16 -105 -48q-53 -35 -74 -74q-11 -16 -9 -21q2 -6 13 -21q51 -63 78 -153q31 -119 -6 -234q-52 -178 -221 -252q-161 -63 -312 22q-6 1 -18 9q-16 10 -18 11q-76 -73 -82 -158q35 -4 123 2q19 1 60 3t60 3q21 0 39 1q27 2 39 3q68 2 146 -15
q72 -12 129 -51q91 -57 117 -146q25 -83 3 -168q-40 -147 -170 -243q-128 -95 -291 -115q-116 -16 -213 14q-77 28 -139 96q-86 104 -68 227t117 207q-42 12 -69 32q-43 35 -60 87q-23 83 15 179t111 168q17 17 15 27q-80 148 -5 327q75 180 240 231q107 33 207 2
q31 61 99 121q79 67 174 96l15 5q12 4 18 5q12 2 17 2q27 -91 70 -150q14 -20 -18 -29q-17 -4 -27 -6zM188 -98l1 2q-19 -46 11 -89q29 -41 80 -55q68 -16 153 6q68 17 137 58q73 40 114 116q40 75 7 120q-31 40 -105 45t-151 -22q-79 -28 -150 -76q-71 -49 -97 -105z
M333 934v1q-67 -83 -51 -192q7 -70 59 -123q38 -37 89 -46q49 -9 101 14q65 33 97 98q27 63 23 122q-5 61 -40 105q-36 45 -80 69t-99 14t-99 -62z" />
    <glyph glyph-name="h" unicode="h" horiz-adv-x="903" 
d="M63 629l-5 -8q12 218 43 375q35 184 78 321q17 29 59 21q42 -7 83 -44q41 -36 30 -65q-35 -102 -57 -231q-8 -46 -27 -165l-12 -86q103 98 274 98q112 0 194 -106q83 -107 116 -252t15 -276q-18 -139 -31 -177q-6 -26 -24 -27q-23 -4 -39 -4q-58 0 -93 27q-32 23 -24 53
q0 7 25 139q20 114 -16 243q-36 131 -97 186q-51 33 -106 2t-105 -144q-49 -111 -67 -261q-1 -18 -3 -158q0 -14 -1 -18q-1 -6 -6 -12q-5 -7 -9 -8q-9 -3 -18 -5q-19 -4 -25 -5l-36 -6q-16 -3 -46 -9q-51 0 -67 207q-17 207 -3 395z" />
    <glyph glyph-name="i" unicode="i" horiz-adv-x="362" 
d="M297 819l-1 2q-78 -411 2 -792q-19 0 -36 -1t-47 -1h-45q-24 0 -38 3t-15 7q-29 95 -30 429t24 405q17 27 58 23q42 -4 87 -30t41 -45zM241 1184h-3q43 0 73 -32q30 -31 28 -72q1 -40 -28 -70q-30 -30 -73 -30q-40 0 -72 30t-30 71q1 42 32 73q30 30 73 30z" />
    <glyph glyph-name="j" unicode="j" horiz-adv-x="827" 
d="M868 1157l-7 -1q-4 -44 -24 -82q-19 -33 -45 -28q-61 8 -90 8q-96 0 -113 -11q50 -149 72 -235q25 -92 37 -246q13 -246 -39 -403q-38 -114 -93 -197q-68 -100 -153 -153q-74 -41 -152 -39q-46 2 -98 30q-85 50 -125 133q-20 37 -24 93q-4 86 45 171q50 86 132 149
q7 4 28 18t26 18q19 14 41 2q66 -44 78 -111q4 -31 -18 -48q-46 -33 -64 -49q-21 -17 -42 -46q-22 -30 -33 -66q-14 -47 25 -84q39 -38 84 -14q71 38 123 136q52 99 69 197q17 113 6 263q-11 151 -39 245q-35 119 -63 194q-78 -27 -125 -65q-27 -23 -74 18q-46 35 -59 84
q-4 16 9 34q15 19 31 29q31 18 51 29q81 44 204 76q89 21 157 29q82 7 121 6q71 -4 109 -12q36 -6 32 -72z" />
    <glyph glyph-name="k" unicode="k" horiz-adv-x="929" 
d="M883 227l-3 -2q18 -215 -35 -227q-76 -18 -139 29q-18 17 -15 39q14 57 2 150t-41 159q-78 172 -175 238q-98 66 -252 35q0 -357 58 -497q10 -27 -15 -52q-52 -53 -108 -63q-26 -2 -39 21q-43 67 -70 264q-29 219 0 498q17 173 37 260q17 79 30 119q8 32 39 33
q60 6 116 -31q22 -13 24 -53q1 -39 -9 -78q-1 -5 -9 -35t-13 -47q-12 -43 -12 -57q8 8 26 23q19 16 28 21q34 27 99 81q71 60 90 74q107 85 132 111q33 29 65 6q62 -44 72 -87q10 -40 -8 -54q-12 -7 -154 -126q-141 -119 -166 -142q88 -22 187 -107q155 -134 223 -344
q28 -85 35 -159z" />
    <glyph glyph-name="l" unicode="l" horiz-adv-x="555" 
d="M563 41l-2 -2q-12 -27 -33 -27l-133 -2h-2q-48 0 -87 -1q-58 -1 -87 -3q-36 -2 -42 1q-7 3 -18 18q-9 12 -23 48q-86 251 -75 687q0 76 7 139q22 275 86 387q18 33 55 23q44 -13 82 -50q38 -36 24 -65q-53 -107 -63 -382q-11 -279 13 -472q5 -58 27 -143q192 0 228 4
q29 2 44 -27q15 -28 12 -64q-3 -38 -13 -69z" />
    <glyph glyph-name="m" unicode="m" horiz-adv-x="1148" 
d="M1094 172l-1 -5q11 -35 -33 -54q-46 -25 -89 -30q-42 -5 -54 21q-19 53 -28 128q-9 72 -9 132t3 189t3 219q0 134 -8 164q-4 -6 -18 -27.5t-23 -36.5q-33 -53 -41 -67q-50 -95 -121 -236q-13 -28 -39 -94q-27 -69 -48 -117t-31 -52q-32 -12 -81 -4q-47 7 -73 33
q-7 5 -9 18q-2 14 3 38q5 27 9 44q5 23 15 59q11 39 15 57q6 25 66 252q21 79 41 189q2 11 3 34l3 36q-187 -158 -285 -432q-97 -274 -19 -454q17 -40 -39 -75q-41 -28 -80 -32q-32 -8 -48 22q-40 67 -51 150q-20 174 40 387q60 214 180 391q119 176 257 241q63 26 84 24
q56 0 93 -31q37 -34 46 -76q9 -43 2 -73q-9 -39 -34 -120q-24 -80 -43 -151q53 132 93 206q41 76 105 140q17 17 61 21q67 6 111 -57q26 -43 37 -92q14 -81 14 -166v-174q-6 -78 -6 -310q0 -141 27 -229z" />
    <glyph glyph-name="n" unicode="n" horiz-adv-x="962" 
d="M63 1139l3 -2q-8 27 41 59q48 31 86 36q25 2 39 -24q37 -69 52 -180q7 -45 9 -65q7 11 21 30q10 15 20 27q136 190 293 190q79 -2 141 -54q63 -57 96 -149q20 -59 30 -129q23 -162 -22 -430q-45 -270 -90 -366q-12 -27 -34 -27q-71 0 -127 52q-23 18 -11 47
q104 266 105 483q4 44 4 78q0 111 -21 186q-13 60 -35 94q-21 33 -52 27q-28 -7 -59 -35q-60 -54 -119 -150q-70 -122 -127 -355q-10 -40 -27 -123q-39 -226 -23 -315q5 -27 -102 -29q-90 -1 -91 18q0 12 26 396t26 389q-2 168 -52 321z" />
    <glyph glyph-name="o" unicode="o" 
d="M926 455l2 -2q-44 -132 -121 -224q-137 -163 -327 -171q-160 -2 -288 117q-130 125 -161 330q-39 279 96 498q104 169 267 224q164 56 315 -34q114 -67 179 -190q66 -125 72 -265q6 -142 -34 -283zM735 469l-2 1q61 152 36 312q-8 52 -30 101q-39 100 -119 147
q-61 37 -129 28q-66 -9 -124 -59q-89 -77 -126 -189q-34 -90 -33 -196t39 -190q34 -88 101 -138q66 -50 146 -39q76 7 142 72t99 150z" />
    <glyph glyph-name="p" unicode="p" horiz-adv-x="770" 
d="M604 377h-5q-79 -106 -195 -148q-51 -18 -86 -18q-11 -1 -35 -3q-15 -1 -35 -1v-166q0 -40 -70 -52t-93 15q-23 8 -21 35v139q0 174 1 314t1 315q0 147 1 264t1 261q0 33 26 41q50 26 104 14q55 -12 59 -63q160 0 273 -92q175 -143 197 -405q23 -263 -123 -450zM519 905
l2 -1q-32 107 -100 174q-77 70 -168 57q0 -3 -0.5 -28.5t-1 -80.5t-0.5 -117q0 -59 -0.5 -119t-1 -91.5t-0.5 -42.5q0 -250 2 -258q45 -4 69 2q74 14 131 87q67 80 83 194q17 114 -15 224z" />
    <glyph glyph-name="q" unicode="q" horiz-adv-x="1007" 
d="M801 317l-5 -1q6 -10 26 -33q23 -27 26 -31q66 -88 84 -189q26 -158 -78 -272q-80 -89 -219 -126q-78 -20 -138 -20q-15 0 -25 -1t-21 -1q-5 0 -13 5q-7 4 -13 15q-20 41 -14 90q7 73 48 75q109 4 180 33q56 26 84 61q33 40 27 99q-11 72 -82 157q-80 -58 -156 -75
q-129 -31 -235 33q-107 64 -165 198q-53 123 -57 289q-2 231 108 440q122 227 312 281q150 44 279 -51q83 -61 133 -168q41 -93 53 -183q14 -90 8 -160q-14 -240 -147 -465zM507 298h1q-27 21 -106 50q-80 30 -106 28q51 -71 94 -90q44 -20 117 12zM748 941v1
q-14 74 -45 126q-33 58 -74 81q-29 19 -54 20q-53 5 -99 -24q-146 -84 -211 -324q-23 -73 -24 -144q-2 0 -2 -35l2 -37q0 -19 3 -24q3 -4 23 -7q104 -17 193 -49q108 -39 190 -92q28 45 51 101q86 199 47 407z" />
    <glyph glyph-name="r" unicode="r" horiz-adv-x="956" 
d="M901 905l-1 1q18 -76 12 -150q-4 -50 -15 -97q-6 -23 -31 -27q-7 -4 -39 -4q-41 0 -80 24q-38 24 -31 52q4 12 9 54q10 91 -20 153q-26 47 -76 68q-32 10 -88 -2q-53 -17 -102 -60q-82 -71 -112 -206q-30 -133 -39 -321t-30 -276q-7 -37 -45 -43q-49 -7 -109 18
q-37 16 -30 55q37 226 37 490q0 260 -50 425q-6 18 -10 27q-6 14 -7 15q-2 1 -3 9q-2 8 3 14q6 18 66 66q61 48 80 23q33 -47 53 -106q21 -61 21 -102q72 83 166 126q65 31 137 37q149 12 256 -104q53 -58 78 -159z" />
    <glyph glyph-name="s" unicode="s" horiz-adv-x="864" 
d="M682 10l-5 -5q-28 -19 -107 -42q-59 -14 -96 -14q-49 0 -92 8q-166 31 -268 159q-103 128 -128 319q-6 32 47 50t96 11q23 -5 32 -15q10 -11 11 -33q26 -130 90 -213q64 -82 167 -97q77 -12 129 21q53 33 71 90t9 129q-9 70 -50 133q-52 94 -123 145q-20 18 -67 53
q-44 33 -82 65q-92 76 -132 162q-39 67 -25 146q13 77 53 144q39 65 108 106q69 40 141 33q83 -11 144 -61q88 -72 126 -203q45 -164 14 -189q-31 -31 -99 -31q-67 0 -76 37q-7 71 -14 106q-10 68 -48 117q-17 23 -49 35q-47 26 -89 -47q-42 -72 -10 -123q32 -48 68 -81
q33 -24 133 -101q2 -1 9.5 -7t13.5 -11q22 -17 27 -22q16 -14 23 -21q190 -162 202 -393t-154 -360z" />
    <glyph glyph-name="t" unicode="t" horiz-adv-x="479" 
d="M571 1317l-6 -7q0 -100 -43 -100q-18 0 -34 -1t-36 -1h-121q0 -39 -1 -114t-1 -132q0 -52 -1 -93t-1 -94q0 -43 -4 -158t-4 -160q0 -56 -1 -105t-1 -106q0 -47 -1 -84t-1 -83q0 -29 -26 -41q-63 -28 -133 3q-28 12 -27 43q2 16 2 33v34q4 45 4 251q8 245 8 318q0 10 2 94
t2 95v281q0 7 -1 12t-1 12h-8q-3 0 -21 2t-25 2h-22h-9h-131q-39 0 -49 63q-10 55 12 100q12 23 38 23h146h248h124q34 -2 48 -2h33q9 0 17 -5q7 -4 13 -20q12 -29 12 -60z" />
    <glyph glyph-name="u" unicode="u" horiz-adv-x="944" 
d="M899 113l-4 -2q-27 -49 -119 -78q-28 -7 -42 18q-70 136 -84 305q-6 -11 -19 -28q-14 -19 -22 -28q-78 -103 -151 -147q-77 -45 -144 -43q-83 5 -139 55q-66 57 -96 147q-59 182 -30 461q11 93 23 146q46 212 86 290q12 27 37 27q70 0 127 -51q20 -18 8 -47
q-55 -123 -85 -330q-30 -203 -10 -364q10 -79 34 -115.5t62 -29.5q26 4 61 36q64 56 117 151q85 158 129 324q6 25 27 125q4 14 7 51q1 13 3 30.5t2 20.5q8 35 8 125q0 17 48 26q50 9 98 5q50 -5 50 -16q0 -106 -25 -240q-45 -260 -16 -565q6 -67 24 -131q3 -12 17 -48
t14 -37q10 -31 4 -43z" />
    <glyph glyph-name="v" unicode="v" horiz-adv-x="890" 
d="M373 -33l-2 2q-18 18 -31 37q-41 53 -80 148q-41 96 -78 217q-51 175 -84 379q-14 90 -30 243q-18 217 -4 318q4 27 21 30q2 0 14 2q9 1 14 5q25 8 63 0q44 -8 60 -22q16 -15 15 -36q-11 -80 0 -222q11 -143 27 -242q6 -44 29 -166q29 -150 87 -327q10 -30 41 -111h4
q50 169 101 322q59 188 166 536q36 105 47 147q8 23 24 26q17 3 27 3q64 -5 110 -39q27 -19 15 -51q-22 -67 -37 -118l-117 -375q-28 -85 -94 -301q-38 -117 -119 -384q-4 -10 -9 -15z" />
    <glyph glyph-name="w" unicode="w" horiz-adv-x="1214" 
d="M1081 182l-2 -4q-33 -78 -85 -135q-53 -59 -103 -72q-84 -27 -162 15q-79 43 -131 124q-31 48 -55 104q-21 50 -31 90q-9 38 -30 123q-71 -81 -73 -84q-143 -152 -260 -87q-84 45 -105 184q-14 99 16 276q30 178 75 309q47 132 105 230q5 10 41 57q8 13 18 14
q12 4 66 -44t54 -66q-17 -37 -32 -72q-14 -34 -29 -66q-56 -117 -88 -258q-21 -81 -32 -168q-20 -157 -2 -219q66 51 138 162q74 113 107 205q7 26 24 69q27 66 153 -6q10 -5 21 -18t6 -30q-34 -172 -30 -268q12 -164 66 -272q44 -92 93 -119q43 -22 88 75t69 230
q24 130 16 212q-6 123 -55 245q-50 124 -115 155q-41 14 -41 39q12 72 45 114t68 19l55 -30q80 -53 125 -147q55 -118 84 -234q34 -156 12 -334q-23 -178 -84 -318z" />
    <glyph glyph-name="x" unicode="x" horiz-adv-x="835" 
d="M809 309v-1q-18 -18 -43 -10q-50 19 -104 53q-63 43 -123 93q-17 15 -32 31q-19 21 -36 39q-22 24 -32 35l-14 14q-101 -140 -165 -379q-1 -7 -11 -46q-8 -32 -18 -61q-9 -27 -9 -25q-4 -22 -121 3q-67 17 -63 27q1 4 5.5 19.5t12.5 44t17 59.5q27 97 44 147
q35 104 69 171q32 62 107 186q-12 19 -41 56t-41 56q-31 41 -81 115q-4 8 -41 57q-34 45 -42 62q-16 27 27 61q44 34 90 41q33 6 53 -20q23 -28 94 -138q15 -24 45 -62q29 -36 45 -59q116 169 193 262q27 -16 51 -31q21 -12 41 -25t41 -25q27 -16 6 -43q-31 -36 -41 -51
q-84 -109 -162 -231q27 -38 86 -102q67 -73 162 -131q26 -13 55 -27q35 -12 24 -69t-48 -96z" />
    <glyph glyph-name="y" unicode="y" 
d="M731 1114v-1q34 34 101 42q66 8 77 -21q16 -44 31 -182q15 -135 15 -225q0 -393 -186 -705q-186 -311 -512 -397q-301 -79 -588 75q-88 55 -76 96q7 27 45 60q39 34 70 44q19 6 51 -23q122 -83 264 -100t265 37q124 54 225 153q101 100 161 252q60 153 60 327
q-90 -155 -220 -183q-131 -29 -258 85q-128 114 -200 350q-12 40 -21 135q-9 97 -5 150q0 19 21 29t51 12t60 -3q32 -5 50 -16q20 -12 18 -29q8 -123 36 -270q46 -224 162 -258q100 -31 189 104q72 111 99 297q10 71 15 165z" />
    <glyph glyph-name="z" unicode="z" horiz-adv-x="802" 
d="M250 225l-2 1q19 7 46 15q8 2 16.5 5t13 4.5t6.5 1.5q49 14 173 48t173 48q27 8 45 -15q51 -66 35 -133q-6 -25 -29 -31q-109 -26 -468 -131l-166 -49q-18 -5 -30 3q-11 7 -36 41q-26 35 -42 53q-5 5 -7 15q-1 8 2 20q2 7 8 21q6 15 13 27q9 17 18 30q7 11 21 35
q19 34 22 38q46 84 96 174l243 443q1 3 18 31q80 131 75 131q-23 0 -191 -12q-84 -6 -188 -14q-27 -5 -45 42q-18 46 -7 95q11 48 50 48l503 37q33 4 57 4q29 0 51 -49q23 -50 14 -94q0 -6 -123 -228q-28 -51 -245 -439q-122 -217 -120 -216z" />
    <glyph glyph-name="bar" unicode="|" horiz-adv-x="489" 
d="M389 1352l-1 -3q6 -6 6 -19q0 -53 -4 -129q-31 -939 -31 -1134q0 -8 -1 -15t-1 -16q0 -16 -18 -25q-31 -12 -61 -12q-27 -1 -64 9l-22 11q-18 9 -18 35q0 34 4 181q13 459 30 1085q-2 44 36 54q74 17 125 -6q10 -6 20 -16z" />
    <glyph glyph-name="asciitilde" unicode="~" horiz-adv-x="980" 
d="M893 930l2 2q33 -52 31 -114t-39 -114q-32 -43 -66 -61q-53 -33 -114 -33q-30 0 -63 13q-49 13 -100 45q-90 56 -148 100q-31 24 -90 59q-6 4 -35 15q-11 6 -21 -6q-6 -8 0 -20t33 -51q28 -40 39 -64q12 -25 0 -36q-32 -31 -138 -48q-16 -4 -28 11q-27 22 -54 66
q-33 57 -39 90q-16 62 11 123t81 92q63 37 133 30q55 -7 112 -41q64 -38 144 -98q12 -10 102 -69q8 -5 45 -21q29 -10 42 15q4 10 -3 19q-20 23 -45 32q-29 11 -29 43q0 65 41 117q1 4 8 7q6 3 8 5q12 10 32 4q48 -17 91 -53q34 -24 57 -59z" />
    <glyph glyph-name="dieresis" unicode="&#xa8;" horiz-adv-x="428" 
d="M461 1579h-2q4 -51 -33 -91t-95 -40q-52 0 -90 37q-40 38 -41 94q-2 59 39 96q40 37 93 37t92 -40t37 -93zM825 1579h-3q4 -51 -33 -91t-96 -40q-52 0 -90 37q-40 38 -41 94q-2 59 39 96q40 37 94 37t93 -40t37 -93z" />
    <glyph glyph-name="acute" unicode="&#xb4;" horiz-adv-x="342" 
d="M528 1460v1q-45 -10 -100 63q-34 50 -15 54q58 51 93 125q35 75 35 114q0 31 84 34q102 5 129 -39q12 -20 0 -45q-99 -205 -226 -307z" />
    <glyph glyph-name="cedilla" unicode="&#xb8;" horiz-adv-x="565" 
d="M356 -360l2 -4q10 22 39 18q36 -2 80 -2q104 0 102 29q0 27 -78 36q-22 4 -47 6q-34 0 -62 2q-26 5 -24 39q0 18 -4 102t-4 115q0 21 6 28q5 6 26 16q19 6 63 2q46 -5 65 -15q4 -1 7 -6q4 -6 6 -10q1 -2 4 -11q1 -3 1 -16v-18v-22v-25v-15q62 -18 108 -47q61 -34 94 -90
q45 -70 9 -139q-55 -109 -234 -129q-47 -6 -150 2q-34 1 -36 35q-8 66 27 119z" />
    <glyph glyph-name="Agrave" unicode="&#xc0;" horiz-adv-x="901" 
d="M662 217h-4q-134 0 -267 -8q-117 -7 -171 -14q0 -2 -2 -15t-3 -23q-1 -9 -3 -22t-2 -17q-4 -57 -9 -90q0 -26 -68 -37q-103 -7 -117 42q0 181 87 528q86 344 179 549q79 162 133 231q16 25 33 25h139q7 -1 60 -83q52 -80 78 -134q100 -216 127 -495q12 -113 4 -312
q-8 -196 -30 -299q-8 -41 -42 -41l-18 -2h-39q-27 0 -41 1q-23 2 -35 7q-13 6 -12 15q23 178 23 194zM252 389h-1q8 -1 194 8q48 2 102.5 5t81.5 4.5t38 1.5q0 4 0.5 10.5t1 18.5t0.5 22q2 39 0 59q-5 163 -22 262q-18 101 -63 220q-39 107 -76 148q-29 -55 -61 -123
q-138 -323 -195 -636zM497 1473h-1q-127 102 -226 307q-28 58 63 78q84 18 135 -9q16 -7 16 -20q0 -39 35 -117q35 -76 99 -123l4 -6q2 -23 -43 -70t-82 -40z" />
    <glyph glyph-name="Aacute" unicode="&#xc1;" horiz-adv-x="901" 
d="M662 217h-4q-134 0 -267 -8q-117 -7 -171 -14q0 -2 -2 -15t-3 -23q-1 -9 -3 -22t-2 -17q-4 -57 -9 -90q0 -26 -68 -37q-103 -7 -117 42q0 181 87 528q86 344 179 549q79 162 133 231q16 25 33 25h139q7 -1 60 -83q52 -80 78 -134q100 -216 127 -495q12 -113 4 -312
q-8 -196 -30 -299q-8 -41 -42 -41l-18 -2h-39q-27 0 -41 1q-23 2 -35 7q-13 6 -12 15q23 178 23 194zM252 389h-1q8 -1 194 8q48 2 102.5 5t81.5 4.5t38 1.5q0 4 0.5 10.5t1 18.5t0.5 22q2 39 0 59q-5 163 -22 262q-18 101 -63 220q-39 107 -76 148q-29 -55 -61 -123
q-138 -323 -195 -636zM523 1460v1q-45 -10 -100 63q-35 50 -15 54q58 51 93 125q35 75 35 114q0 31 84 34q102 5 129 -39q12 -20 0 -45q-99 -205 -226 -307z" />
    <glyph glyph-name="Acircumflex" unicode="&#xc2;" horiz-adv-x="901" 
d="M662 217h-4q-134 0 -267 -8q-117 -7 -171 -14q0 -2 -2 -15t-3 -23q-1 -9 -3 -22t-2 -17q-4 -57 -9 -90q0 -26 -68 -37q-103 -7 -117 42q0 181 87 528q86 344 179 549q79 162 133 231q16 25 33 25h139q7 -1 60 -83q52 -80 78 -134q100 -216 127 -495q12 -113 4 -312
q-8 -196 -30 -299q-8 -41 -42 -41l-18 -2h-39q-27 0 -41 1q-23 2 -35 7q-13 6 -12 15q23 178 23 194zM252 389h-1q8 -1 194 8q48 2 102.5 5t81.5 4.5t38 1.5q0 4 0.5 10.5t1 18.5t0.5 22q2 39 0 59q-5 163 -22 262q-18 101 -63 220q-39 107 -76 148q-29 -55 -61 -123
q-138 -323 -195 -636zM683 1448l-5 -4q-8 10 -39 37q-37 38 -103 99q-70 64 -105 102q-5 -8 -15 -24.5t-19 -31.5t-17 -29q-28 -48 -48 -81q-22 -37 -36 -64q-26 -34 -72 -9q-38 18 -55 45t-6 53q13 22 104 143t106 139q2 2 7.5 7t9.5 9q12 12 15 16q5 6 12 12t13 6
q4 0 14 -2q8 -1 15 -9q49 -40 110 -97q27 -25 58 -53.5t34 -31.5q2 -1 57 -53q44 -41 69 -60q25 -22 16 -54q-22 -45 -59 -67q-35 -21 -61 2z" />
    <glyph glyph-name="Atilde" unicode="&#xc3;" horiz-adv-x="962" 
d="M662 217h-4q-134 0 -267 -8q-117 -7 -171 -14q0 -2 -2 -15t-3 -23q-1 -9 -3 -22t-2 -17q-4 -57 -9 -90q0 -26 -68 -37q-103 -7 -117 42q0 181 87 528q86 344 179 549q79 162 133 231q16 25 33 25h139q7 -1 60 -83q52 -80 78 -134q100 -216 127 -495q12 -113 4 -312
q-8 -196 -30 -299q-8 -41 -42 -41l-18 -2h-39q-27 0 -41 1q-23 2 -35 7q-13 6 -12 15q23 178 23 194zM252 389h-1q8 -1 194 8q48 2 102.5 5t81.5 4.5t38 1.5q0 4 0.5 10.5t1 18.5t0.5 22q2 39 0 59q-5 163 -22 262q-18 101 -63 220q-39 107 -76 148q-29 -55 -61 -123
q-138 -323 -195 -636zM886 1688l2 -2q33 -50 31 -111q-1 -60 -36 -108q-29 -41 -66 -59q-49 -33 -111 -33q-16 0 -61 12q-46 12 -98 45q-100 60 -148 99q-17 13 -48 33q-8 5 -18 11t-15.5 9.5t-8.5 5.5q-6 6 -18 9q-8 2 -17 5q-16 13 -28 -7q-8 -11 -2 -27q7 -12 32 -50
q28 -42 38 -61q13 -25 6 -34q-20 -19 -135 -45q-12 -1 -22 9q-29 31 -51 66q-28 51 -39 90q-13 57 12 117q25 59 78 91q59 37 129 30q57 -11 108 -42q62 -37 144 -96q51 -39 104 -69q8 -4 45 -21q33 -12 51 21q6 12 -6 24q-23 27 -47 35q-24 7 -24 36q0 53 39 113l6 6l6 6
q8 8 27 2q29 -8 87 -51q31 -24 54 -59z" />
    <glyph glyph-name="Adieresis" unicode="&#xc4;" horiz-adv-x="901" 
d="M662 217h-4q-134 0 -267 -8q-117 -7 -171 -14q0 -2 -2 -15t-3 -23q-1 -9 -3 -22t-2 -17q-4 -57 -9 -90q0 -26 -68 -37q-103 -7 -117 42q0 181 87 528q86 344 179 549q79 162 133 231q16 25 33 25h139q7 -1 60 -83q52 -80 78 -134q100 -216 127 -495q12 -113 4 -312
q-8 -196 -30 -299q-8 -41 -42 -41l-18 -2h-39q-27 0 -41 1q-23 2 -35 7q-13 6 -12 15q23 178 23 194zM252 389h-1q8 -1 194 8q48 2 102.5 5t81.5 4.5t38 1.5q0 4 0.5 10.5t1 18.5t0.5 22q2 39 0 59q-5 163 -22 262q-18 101 -63 220q-39 107 -76 148q-29 -55 -61 -123
q-138 -323 -195 -636zM456 1579h-2q4 -51 -33 -91t-95 -40q-52 0 -90 37q-40 38 -41 94q-1 59 39 96t93 37t92 -40t37 -93zM820 1579h-3q4 -51 -33 -91t-96 -40q-52 0 -90 37q-40 38 -41 94q-1 59 39 96t94 37t93 -40t37 -93z" />
    <glyph glyph-name="Aring" unicode="&#xc5;" horiz-adv-x="901" 
d="M662 217h-4q-134 0 -267 -8q-117 -7 -171 -14q0 -2 -2 -15t-3 -23q-1 -9 -3 -22t-2 -17q-4 -57 -9 -90q0 -26 -68 -37q-103 -7 -117 42q0 181 87 528q86 344 179 549q79 162 133 231q16 25 33 25h139q7 -1 60 -83q52 -80 78 -134q100 -216 127 -495q12 -113 4 -312
q-8 -196 -30 -299q-8 -41 -42 -41l-18 -2h-39q-27 0 -41 1q-23 2 -35 7q-13 6 -12 15q23 178 23 194zM252 389h-1q8 -1 194 8q48 2 102.5 5t81.5 4.5t38 1.5q0 4 0.5 10.5t1 18.5t0.5 22q2 39 0 59q-5 163 -22 262q-18 101 -63 220q-39 107 -76 148q-29 -55 -61 -123
q-138 -323 -195 -636zM687 1622q0 -76 -51 -120q-52 -44 -114 -44q-64 0 -114 43q-51 43 -51 121q0 76 51 120q50 43 114 43t114 -43q51 -44 51 -120zM579 1620l-1 1q0 35 -28 48q-29 14 -57 -1t-28 -48q0 -37 29 -51t57 1t28 50z" />
    <glyph glyph-name="AE" unicode="&#xc6;" horiz-adv-x="1449" 
d="M20 31l-7 1q0 182 87 528q86 344 179 549q79 162 133 231q16 25 33 25h139q7 -1 60 -83q52 -80 78 -134q16 -38 45 -108q27 271 64 281q30 8 71 8q64 0 204 4q157 4 163 6q32 4 43 -26q11 -26 12 -49q5 -39 -3 -68q-1 -12 -9 -27t-27 -15q-41 0 -102 -4q-73 -4 -123 -4
q-54 0 -90 -4q-1 -9 -6 -31q-4 -19 -4 -31q-2 -27 -7 -60t-7 -60q-22 -230 -9 -375l213 49q35 8 51 -19q37 -55 31 -123q-2 -32 -33 -39q-67 -20 -151 -36q-86 -17 -99 -21q-5 -86 18 -192q231 -33 338 20q17 8 34 -4q18 -10 39 -42q29 -46 29 -90q0 -23 -23 -35
q-102 -44 -286 -45q-184 -2 -270 42l-2 -8q-8 -41 -42 -41l-18 -2h-39q-27 0 -41 1q-23 2 -35 7q-13 6 -12 15q23 178 23 194q-134 0 -267 -8q-117 -7 -171 -14l-10 -78q-4 -57 -9 -90q0 -26 -68 -37q-105 -7 -117 42zM249 390h-1q8 -1 194 8q48 2 102.5 5t81.5 4.5t38 1.5
q0 4 0.5 10.5t1 18.5t0.5 22q2 39 0 59q-5 163 -22 262q-18 101 -63 220q-39 107 -76 148q-29 -55 -61 -123q-138 -322 -195 -636z" />
    <glyph glyph-name="Ccedilla" unicode="&#xc7;" horiz-adv-x="892" 
d="M76 387l-3 -4q-43 160 -28 373q15 210 83 360q40 100 111 177q72 76 161 99q107 23 200 -34q94 -57 158 -168q9 -18 16 -31q10 -19 15 -27q11 -20 -3 -35q-19 -26 -60 -46q-40 -19 -73 -18q-29 5 -36 25q-45 98 -100 135q-100 66 -196 -104q-41 -78 -63 -177
q-43 -171 -19 -381q24 -209 108 -321q17 -27 43 -51q73 -66 152 8q41 41 77 119q28 59 50 147q6 26 28 30q35 11 62 3q39 -10 45 -12q17 -7 37 -24q16 -12 10 -33q-23 -93 -42 -143q-53 -130 -123 -203q-65 -70 -143 -94l-4 -2v-51v-15q62 -18 108 -47q61 -34 94 -90
q45 -70 9 -139q-56 -109 -234 -129q-47 -6 -150 2q-34 1 -36 35q-6 67 28 119q10 22 39 18q36 -2 80 -2q104 0 102 29q0 27 -78 36q-22 4 -47 6q-34 0 -62 2q-26 5 -24 39q0 8 -3 44q-2 26 -4 84q-2 64 -2 68l-8 4q-82 34 -144 119q-91 122 -131 300z" />
    <glyph glyph-name="Egrave" unicode="&#xc8;" horiz-adv-x="677" 
d="M57 1014l-4 -2q31 302 69 309q30 8 72 8q64 0 203 4q156 5 162 6q32 4 43 -26q8 -26 12 -49q5 -39 -3 -68q-1 -2 -4.5 -11.5t-5.5 -15.5q-8 -14 -26 -14q-40 0 -103 -4q-73 -4 -123 -4q-54 0 -90 -4q0 -12 -4 -31q-5 -22 -6 -31q-1 -19 -6 -60t-6 -60q-23 -232 -11 -375
l213 49q35 8 51 -19q38 -56 30 -123q-2 -31 -33 -39q-67 -20 -151 -36t-97 -21q-5 -85 18 -192q231 -33 338 20q17 8 36 -4q18 -11 39 -42q28 -45 27 -90q0 -23 -22 -35q-124 -52 -358 -42q-233 10 -241 84q-64 478 -19 918zM365 1471h-1q-127 102 -226 307q-28 58 63 78
q84 18 135 -9q16 -7 16 -20q0 -39 35 -117q34 -76 98 -123l5 -6q2 -23 -43 -70t-82 -40z" />
    <glyph glyph-name="Eacute" unicode="&#xc9;" horiz-adv-x="739" 
d="M57 1014l-4 -2q31 302 69 309q30 8 72 8q64 0 203 4q156 5 162 6q32 4 43 -26q8 -26 12 -49q5 -39 -3 -68q-1 -2 -4.5 -11.5t-5.5 -15.5q-8 -14 -26 -14q-40 0 -103 -4q-73 -4 -123 -4q-54 0 -90 -4q0 -12 -4 -31q-5 -22 -6 -31q-1 -19 -6 -60t-6 -60q-23 -232 -11 -375
l213 49q35 8 51 -19q38 -56 30 -123q-2 -31 -33 -39q-67 -20 -151 -36t-97 -21q-5 -85 18 -192q231 -33 338 20q17 8 36 -4q18 -11 39 -42q28 -45 27 -90q0 -23 -22 -35q-124 -52 -358 -42q-233 10 -241 84q-64 478 -19 918zM524 1458v1q-45 -10 -100 63q-34 50 -15 54
q58 51 93 125q35 75 35 114q0 31 84 34q102 5 129 -39q12 -20 0 -45q-99 -205 -226 -307z" />
    <glyph glyph-name="Ecircumflex" unicode="&#xca;" horiz-adv-x="679" 
d="M57 1014l-4 -2q31 302 69 309q30 8 72 8q64 0 203 4q156 5 162 6q32 4 43 -26q8 -26 12 -49q5 -39 -3 -68q-1 -2 -4.5 -11.5t-5.5 -15.5q-8 -14 -26 -14q-40 0 -103 -4q-73 -4 -123 -4q-54 0 -90 -4q0 -12 -4 -31q-5 -22 -6 -31q-1 -19 -6 -60t-6 -60q-23 -232 -11 -375
l213 49q35 8 51 -19q38 -56 30 -123q-2 -31 -33 -39q-67 -20 -151 -36t-97 -21q-5 -85 18 -192q231 -33 338 20q17 8 36 -4q18 -11 39 -42q28 -45 27 -90q0 -23 -22 -35q-124 -52 -358 -42q-233 10 -241 84q-64 478 -19 918zM574 1436l-4 -3q-8 10 -39 37q-37 38 -103 99
q-70 65 -105 102q-23 -37 -51 -84q-37 -60 -48 -79q-22 -37 -36 -64q-26 -34 -72 -9q-38 18 -55 45t-6 54q13 22 104 143t106 139q2 2 7.5 7t9.5 9l15 15q7 7 12 11q8 6 14 6q3 0 13 -2q7 -1 15 -11q49 -40 110 -97q46 -43 91 -85q2 -1 57 -53q48 -45 69 -62q25 -22 16 -53
q-22 -45 -59 -67q-35 -21 -61 2z" />
    <glyph glyph-name="Edieresis" unicode="&#xcb;" horiz-adv-x="684" 
d="M57 1014l-4 -2q31 302 69 309q30 8 72 8q64 0 203 4q156 5 162 6q32 4 43 -26q8 -26 12 -49q5 -39 -3 -68q-1 -2 -4.5 -11.5t-5.5 -15.5q-8 -14 -26 -14q-40 0 -103 -4q-73 -4 -123 -4q-54 0 -90 -4q0 -12 -4 -31q-5 -22 -6 -31q-1 -19 -6 -60t-6 -60q-23 -232 -11 -375
l213 49q35 8 51 -19q38 -56 30 -123q-2 -31 -33 -39q-67 -20 -151 -36t-97 -21q-5 -85 18 -192q231 -33 338 20q17 8 36 -4q18 -11 39 -42q28 -45 27 -90q0 -23 -22 -35q-124 -52 -358 -42q-233 10 -241 84q-64 478 -19 918zM344 1577h-2q4 -51 -33 -91t-95 -40
q-52 0 -90 37q-40 38 -41 94q-1 59 39 96t93 37t92 -40t37 -93zM699 1577h-3q4 -51 -33 -91t-96 -40q-52 0 -90 37q-40 38 -41 94q-2 59 39 96q40 37 94 37t93 -40t37 -93z" />
    <glyph glyph-name="Igrave" unicode="&#xcc;" horiz-adv-x="534" 
d="M344 276v2q2 -20 6 -59l25 12q17 11 36 0q1 -1 9 -6q57 -41 72 -105q8 -32 -21 -48q-54 -34 -126 -47q-84 -13 -139 -12q-76 4 -133 24q-27 8 -29 35q-2 14 0 30q10 57 39 90q3 4 12 13q14 14 35 8q28 -6 33 -4v24q-1 29 -9 96q-35 320 -11 735q1 13 3 44q2 40 2 44h-51
q-32 -6 -42 25q-8 18 -9 34q-8 63 6 92q2 2 5 9q3 8 7 12q10 13 25 12q6 1 10 0q143 2 288 0q33 1 43 -27q10 -30 10 -39q0 -62 -6 -81q0 -5 -10 -24q-12 -16 -31 -16h-57q-4 -17 -4 -27v-6q-1 -7 -1.5 -21t-0.5 -30q0 -9 -5 -135q-2 -57 -4 -174q-1 -94 3 -199
q5 -106 12 -191q0 -17 4 -44t4 -46zM301 1475h-2q-128 102 -225 307q-29 59 61 78q84 18 135 -9q16 -7 18 -20q0 -39 35 -117q35 -76 99 -123l4 -6q2 -23 -43 -70t-82 -40z" />
    <glyph glyph-name="Iacute" unicode="&#xcd;" horiz-adv-x="534" 
d="M344 276v2q2 -20 6 -59l25 12q17 11 36 0q1 -1 9 -6q57 -41 72 -105q8 -32 -21 -48q-54 -34 -126 -47q-84 -13 -139 -12q-76 4 -133 24q-27 8 -29 35q-2 14 0 30q10 57 39 90q3 4 12 13q14 14 35 8q28 -6 33 -4v24q-1 29 -9 96q-35 320 -11 735q1 13 3 44q2 40 2 44h-51
q-32 -6 -42 25q-8 18 -9 34q-8 63 6 92q2 2 5 9q3 8 7 12q10 13 25 12q6 1 10 0q143 2 288 0q33 1 43 -27q10 -30 10 -39q0 -62 -6 -81q0 -5 -10 -24q-12 -16 -31 -16h-57q-4 -17 -4 -27v-6q-1 -7 -1.5 -21t-0.5 -30q0 -9 -5 -135q-2 -57 -4 -174q-1 -94 3 -199
q5 -106 12 -191q0 -17 4 -44t4 -46zM260 1460l1 1q-45 -10 -100 63q-35 50 -17 54q58 51 93 125q35 75 35 114q0 31 84 34q102 5 129 -39q12 -20 0 -45q-97 -205 -225 -307z" />
    <glyph glyph-name="Icircumflex" unicode="&#xce;" horiz-adv-x="724" 
d="M438 276l-3 2q2 -20 6 -59l25 12q16 11 36 0q2 -1 9 -6q57 -41 72 -105q7 -32 -21 -48q-54 -34 -126 -47q-84 -13 -139 -12q-76 4 -133 24q-27 8 -29 35q-1 14 0 30q11 57 39 90q3 4 12 13q14 14 35 8q28 -6 33 -4v24q-2 29 -9 96q-35 317 -9 735q1 13 3 44q2 40 2 44
h-52q-31 -6 -40 25q-9 21 -11 34q-8 63 6 92q2 2 5 9t8 12q11 14 24 12q6 2 11 0q142 2 288 0q33 1 43 -27q11 -31 12 -39q0 -63 -7 -81q0 -5 -10 -24q-12 -16 -31 -16h-57q-4 -17 -4 -27v-6q-1 -7 -1.5 -21t-0.5 -30q0 -9 -5 -135q-2 -57 -4 -174q-1 -94 3 -199
q5 -106 12 -191q0 -14 3 -44q1 -10 3 -25.5t2 -20.5zM558 1450l-5 -4q-8 10 -39 37q-37 38 -103 99q-71 64 -105 102l-51 -85q-29 -48 -48 -81q-22 -37 -36 -64q-25 -34 -72 -9q-38 18 -55 45t-6 53q13 22 104 143t106 139q2 2 7.5 7t9.5 9q12 12 15 16q4 6 12 12q7 6 13 6
q4 0 14 -2q7 -1 15 -9q49 -40 110 -97q27 -25 58 -53.5t34 -31.5q2 -1 57 -53q43 -41 69 -60q25 -22 16 -54q-22 -45 -59 -67q-35 -21 -61 2z" />
    <glyph glyph-name="Idieresis" unicode="&#xcf;" horiz-adv-x="708" 
d="M428 276l-1 2q2 -20 6 -59l25 12q16 11 36 0q2 -1 9 -6q58 -41 71 -105q8 -32 -21 -48q-54 -34 -126 -47q-84 -13 -139 -12q-76 4 -133 24q-27 8 -29 35q-4 14 0 30q10 57 39 90q1 5 12 13q14 14 35 8q28 -6 33 -4v24q-1 29 -9 96q-35 320 -11 735q0 4 2 44q2 31 3 44
h-51q-32 -6 -42 25q-8 18 -9 34q-8 63 6 92q0 2 4 9q4 8 9 12q7 14 24 12q4 1 10 0q145 1 289 0q33 1 43 -27q10 -30 10 -39q0 -62 -6 -81q-1 -5 -9 -24q-12 -16 -31 -16h-57q-4 -17 -4 -27v-6q-1 -7 -1.5 -21t-0.5 -30q0 -9 -5 -135q-2 -57 -4 -174q-1 -94 3 -199
q5 -106 12 -191q0 -14 3 -44q1 -10 3 -25.5t2 -20.5zM300 1581h-2q4 -51 -33 -91t-95 -40q-52 0 -90 37q-40 38 -41 94q-1 59 39 96t93 37t92 -40t37 -93zM665 1581h-2q4 -51 -33 -91t-95 -40q-52 0 -90 37q-40 38 -41 94q-1 58 38 96q38 37 93 37q54 0 93 -40t37 -93z" />
    <glyph glyph-name="Eth" unicode="&#xd0;" horiz-adv-x="1120" 
d="M-74 612l-3 -2q-12 68 4 102l9 14q7 17 32 19h84h6q6 145 31 303q13 78 55 255q6 27 37 30q67 6 129 -39q22 -18 12 -45l-13 -43q9 1 28 6q28 7 33 8q22 4 27 5q55 7 90 9q72 4 123 -3q158 -23 267 -108q156 -117 192 -307q11 -51 6 -129q-7 -117 -66 -225
q-46 -87 -127 -164q-142 -134 -333 -177q-44 -9 -115 -17q-22 -2 -93 3q-9 0 -25 -11q-38 -40 -96 -54q-41 -8 -53 18q-30 58 -53 136q-44 150 -52 362l-90 2q-25 0 -37 25q-5 11 -9 27zM245 555l-2 -2q1 -112 26 -238q4 -25 94 -28t135 9q166 38 276 159q67 68 92 149
q33 95 17 177q-29 156 -182 230q-24 11 -59 19q-32 8 -61 9q-30 1 -67 0q-38 -1 -63 -6q-8 -1 -28 -4.5t-32 -5.5q-40 -7 -51 -10q-16 -5 -42 -12q-24 -7 -30 -7q-16 -128 -22 -254h90q32 0 39 -24t9 -36q8 -45 -6 -90q-6 -14 -10 -21q-12 -14 -29 -14h-94z" />
    <glyph glyph-name="Ntilde" unicode="&#xd1;" horiz-adv-x="978" 
d="M281 942l-10 -2q-10 -60 -25 -180q-38 -348 33 -606q1 -7 8 -30q7 -24 8 -27q12 -58 4 -70q-7 -12 -60 -18q-55 -10 -82 -9q-27 2 -33 27q-33 106 -36 118q-38 144 -40 385q-1 237 32 394q8 66 39 195q32 130 51 176q6 18 27 17q17 -3 62 -10l45 -6q12 -1 27 -5
q12 -3 16 -7q5 -5 6 -10q17 -45 74 -210q17 -50 48 -147t48 -147l66 -192q84 -230 115 -265q2 5 3 37q1 33 3 84q1 34 1 72q0 103 4 252q5 99 9 149l6 99q4 46 9 132q4 32 7 114q3 76 -1 94q54 20 153 20q25 0 30 -20q0 -1 3 -22t3 -31q4 -41 0 -84q0 -8 -7 -99
q-6 -75 -13 -205q-6 -108 -6 -129q-4 -76 -4 -129q-4 -149 -4 -252q-2 -90 -2 -204q0 -27 1 -48t1 -48q0 -21 -4 -54q0 -13 -18 -18q2 0 -34 -9q-24 -6 -74 -18q-11 -3 -21 -5.5t-17 -4.5l-6 -1q-14 -1 -24 9q-42 39 -92 123q-102 169 -192 405q-23 66 -113 346zM881 1686
l2 -2q33 -50 31 -111q-2 -60 -36 -108q-29 -41 -66 -59q-50 -33 -111 -33q-16 0 -61 12q-46 12 -98 45q-100 60 -148 99q-16 13 -48 33q-8 5 -18 11t-15.5 9.5t-8.5 5.5q-6 6 -18 9q-8 2 -17 5q-16 13 -28 -7q-8 -11 -2 -27q7 -12 32 -50q28 -42 38 -61q13 -25 6 -34
q-19 -19 -135 -45q-12 -1 -22 9q-28 31 -51 66q-29 51 -39 90q-14 57 12 117q25 59 78 91q58 37 129 30q57 -11 108 -42q61 -37 144 -96q51 -39 104 -69q7 -4 45 -21q33 -12 51 21q6 12 -6 24q-23 27 -47 35q-24 7 -24 36q0 53 39 113l6 6l6 6q8 8 27 2q28 -8 87 -51
q31 -24 54 -59z" />
    <glyph glyph-name="Ograve" unicode="&#xd2;" horiz-adv-x="839" 
d="M96 1042l1 -2q40 96 94 165q77 89 166 120q119 37 225 -30q58 -37 105 -105q61 -84 96 -213q47 -168 32 -360q-15 -193 -87 -339q-34 -82 -90 -142q-68 -79 -141 -104q-131 -46 -246 30q-82 52 -141 164q-86 174 -89 403q-3 231 75 413zM595 438l-1 2q44 143 39 299
t-57 279q-38 77 -79 111q-53 41 -111 6q-37 -25 -55 -57q-35 -44 -57 -99q-72 -171 -65 -378q8 -209 93 -332q32 -44 64 -60q33 -18 67 -2q26 7 64 45q58 65 98 186zM502 1473h-1q-127 102 -226 307q-29 58 63 78q84 18 135 -9q16 -7 16 -20q0 -39 35 -117q34 -76 99 -123
l4 -6q2 -23 -43 -70t-82 -40z" />
    <glyph glyph-name="Oacute" unicode="&#xd3;" horiz-adv-x="839" 
d="M96 1042l1 -2q40 96 94 165q77 89 166 120q119 37 225 -30q58 -37 105 -105q61 -84 96 -213q47 -168 32 -360q-15 -193 -87 -339q-34 -82 -90 -142q-68 -79 -141 -104q-131 -46 -246 30q-82 52 -141 164q-86 174 -89 403q-3 231 75 413zM595 438l-1 2q44 143 39 299
t-57 279q-38 77 -79 111q-53 41 -111 6q-37 -25 -55 -57q-35 -44 -57 -99q-72 -171 -65 -378q8 -209 93 -332q32 -44 64 -60q33 -18 67 -2q26 7 64 45q58 65 98 186zM528 1460v1q-45 -10 -100 63q-34 50 -15 54q58 51 93 125q35 75 35 114q0 31 84 34q102 5 129 -39
q12 -20 0 -45q-99 -205 -226 -307z" />
    <glyph glyph-name="Ocircumflex" unicode="&#xd4;" horiz-adv-x="839" 
d="M96 1042l1 -2q40 96 94 165q77 89 166 120q119 37 225 -30q58 -37 105 -105q61 -84 96 -213q47 -168 32 -360q-15 -193 -87 -339q-34 -82 -90 -142q-68 -79 -141 -104q-131 -46 -246 30q-82 52 -141 164q-86 174 -89 403q-3 231 75 413zM595 438l-1 2q44 143 39 299
t-57 279q-38 77 -79 111q-53 41 -111 6q-37 -25 -55 -57q-35 -44 -57 -99q-72 -171 -65 -378q8 -209 93 -332q32 -44 64 -60q33 -18 67 -2q26 7 64 45q58 65 98 186zM688 1448l-5 -4q-8 10 -39 37q-37 38 -103 99q-71 64 -105 102q-5 -8 -15 -24.5t-19 -31.5t-17 -29
q-29 -48 -48 -81q-22 -37 -36 -64q-25 -34 -72 -9q-38 18 -55 45t-6 53q13 22 104 143t106 139q2 2 7.5 7t9.5 9q12 12 15 16q4 6 12 12q7 6 13 6q4 0 14 -2q7 -1 15 -9q49 -40 110 -97q27 -25 58 -53.5t34 -31.5q2 -1 57 -53q43 -41 69 -60q25 -22 16 -54q-22 -45 -59 -67
q-35 -21 -61 2z" />
    <glyph glyph-name="Otilde" unicode="&#xd5;" horiz-adv-x="942" 
d="M96 1042l1 -2q40 96 94 165q77 89 166 120q119 37 225 -30q58 -37 105 -105q61 -84 96 -213q47 -168 32 -360q-15 -193 -87 -339q-34 -82 -90 -142q-68 -79 -141 -104q-131 -46 -246 30q-82 52 -141 164q-86 174 -89 403q-3 231 75 413zM595 438l-1 2q44 143 39 299
t-57 279q-38 77 -79 111q-53 41 -111 6q-37 -25 -55 -57q-35 -44 -57 -99q-72 -171 -65 -378q8 -209 93 -332q32 -44 64 -60q33 -18 67 -2q26 7 64 45q58 65 98 186zM891 1688l2 -2q33 -50 31 -111q-2 -60 -36 -108q-29 -41 -66 -59q-50 -33 -111 -33q-16 0 -61 12
q-46 12 -98 45q-100 60 -148 99q-16 13 -48 33q-8 5 -18 11t-15.5 9.5t-8.5 5.5q-6 6 -18 9q-8 2 -17 5q-16 13 -28 -7q-8 -11 -2 -27q7 -12 32 -50q28 -42 38 -61q13 -25 6 -34q-19 -19 -135 -45q-12 -1 -22 9q-28 31 -51 66q-29 51 -39 90q-14 57 12 117q25 59 78 91
q58 37 129 30q57 -11 108 -42q61 -37 144 -96q51 -39 104 -69q7 -4 45 -21q33 -12 51 21q6 12 -6 24q-23 27 -47 35q-24 7 -24 36q0 53 39 113l6 6l6 6q8 8 27 2q28 -8 87 -51q31 -24 54 -59z" />
    <glyph glyph-name="Odieresis" unicode="&#xd6;" horiz-adv-x="847" 
d="M96 1042l1 -2q40 96 94 165q77 89 166 120q119 37 225 -30q58 -37 105 -105q61 -84 96 -213q47 -168 32 -360q-15 -193 -87 -339q-34 -82 -90 -142q-68 -79 -141 -104q-131 -46 -246 30q-82 52 -141 164q-86 174 -89 403q-3 231 75 413zM595 438l-1 2q44 143 39 299
t-57 279q-38 77 -79 111q-53 41 -111 6q-37 -25 -55 -57q-35 -44 -57 -99q-72 -171 -65 -378q8 -209 93 -332q32 -44 64 -60q33 -18 67 -2q26 7 64 45q58 65 98 186zM461 1579h-2q4 -51 -33 -91t-95 -40q-52 0 -90 37q-40 38 -41 94q-2 59 39 96q40 37 93 37t92 -40t37 -93z
M825 1579h-3q4 -51 -33 -91t-96 -40q-52 0 -90 37q-40 38 -41 94q-2 59 39 96q40 37 94 37t93 -40t37 -93z" />
    <glyph glyph-name="Oslash" unicode="&#xd8;" horiz-adv-x="839" 
d="M96 1042l-2 -4q40 96 94 165q77 89 166 120q103 31 197 -14q12 19 43 18q76 -5 117 -45q13 -12 14 -20q5 -10 0 -21l-25 -72q50 -76 82 -194q47 -168 32 -360q-15 -193 -87 -339q-34 -82 -90 -142q-68 -79 -141 -104q-104 -38 -201 3l-4 -12q-5 -13 -27 -18q-22 -4 -61 6
q-7 1 -17 8q-9 6 -21 12q-14 7 -19 10q-4 1 -18 17q-14 15 -6 39l24 70l-36 61q-86 174 -89 403q-3 231 75 413zM205 598h-1q4 -92 30 -183l253 715q-50 35 -105 2q-37 -25 -55 -57q-35 -43 -57 -99q-71 -171 -65 -378zM362 207v-1q33 -18 67 -2q26 7 64 45q58 67 98 186
q74 241 14 475q-195 -538 -250 -699z" />
    <glyph glyph-name="Ugrave" unicode="&#xd9;" horiz-adv-x="997" 
d="M936 692h-3q-17 -214 -75 -375q-40 -112 -104 -194q-111 -134 -248 -117q-136 16 -246 168q-56 87 -106 216q-44 121 -70 256q-31 214 -31 334q0 118 27 332q2 27 29 32q21 8 53 5q57 -7 86 -29q20 -17 14 -43q0 -5 -12 -102q-13 -115 -6 -265q7 -149 33 -265
q23 -112 57 -203q40 -111 98 -183q118 -147 213 33q43 76 69 183q21 104 26 147q33 205 -8 471q-11 78 -35 174q-11 41 21 59q56 37 117 31q31 -1 39 -33q22 -76 39 -177q33 -243 23 -455zM499 1473h-1q-127 102 -226 307q-28 58 63 78q84 18 135 -9q16 -7 16 -20
q0 -39 35 -117q35 -76 99 -123l4 -6q2 -23 -43 -70t-82 -40z" />
    <glyph glyph-name="Uacute" unicode="&#xda;" horiz-adv-x="997" 
d="M936 692h-3q-17 -214 -75 -375q-40 -112 -104 -194q-111 -134 -248 -117q-136 16 -246 168q-56 87 -106 216q-44 121 -70 256q-31 214 -31 334q0 118 27 332q2 27 29 32q21 8 53 5q57 -7 86 -29q20 -17 14 -43q0 -5 -12 -102q-13 -115 -6 -265q7 -149 33 -265
q23 -112 57 -203q40 -111 98 -183q118 -147 213 33q43 76 69 183q21 104 26 147q33 205 -8 471q-11 78 -35 174q-11 41 21 59q56 37 117 31q31 -1 39 -33q22 -76 39 -177q33 -243 23 -455zM525 1460v1q-45 -10 -100 63q-35 50 -15 54q58 51 93 125q35 75 35 114q0 31 84 34
q102 5 129 -39q12 -20 0 -45q-99 -205 -226 -307z" />
    <glyph glyph-name="Ucircumflex" unicode="&#xdb;" horiz-adv-x="997" 
d="M936 692h-3q-17 -214 -75 -375q-40 -112 -104 -194q-111 -134 -248 -117q-136 16 -246 168q-56 87 -106 216q-44 121 -70 256q-31 214 -31 334q0 118 27 332q2 27 29 32q21 8 53 5q57 -7 86 -29q20 -17 14 -43q0 -5 -12 -102q-13 -115 -6 -265q7 -149 33 -265
q23 -112 57 -203q40 -111 98 -183q118 -147 213 33q43 76 69 183q21 104 26 147q33 205 -8 471q-11 78 -35 174q-11 41 21 59q56 37 117 31q31 -1 39 -33q22 -76 39 -177q33 -243 23 -455zM685 1448l-5 -4q-8 10 -39 37q-37 38 -103 99q-70 64 -105 102q-5 -8 -15 -24.5
t-19 -31.5t-17 -29q-28 -48 -48 -81q-22 -37 -36 -64q-26 -34 -72 -9q-38 18 -55 45t-6 53q13 22 104 143t106 139q2 2 7.5 7t9.5 9q12 12 15 16q5 6 12 12q8 6 13 6q4 0 14 -2q8 -1 15 -9q49 -40 110 -97q27 -25 58 -53.5t34 -31.5q2 -1 57 -53q44 -41 69 -60
q25 -22 16 -54q-22 -45 -59 -67q-35 -21 -61 2z" />
    <glyph glyph-name="Udieresis" unicode="&#xdc;" horiz-adv-x="997" 
d="M936 692h-3q-17 -214 -75 -375q-40 -112 -104 -194q-111 -134 -248 -117q-136 16 -246 168q-56 87 -106 216q-44 121 -70 256q-31 214 -31 334q0 118 27 332q2 27 29 32q21 8 53 5q57 -7 86 -29q20 -17 14 -43q0 -5 -12 -102q-13 -115 -6 -265q7 -149 33 -265
q23 -112 57 -203q40 -111 98 -183q118 -147 213 33q43 76 69 183q21 104 26 147q33 205 -8 471q-11 78 -35 174q-11 41 21 59q56 37 117 31q31 -1 39 -33q22 -76 39 -177q33 -243 23 -455zM458 1579h-2q4 -51 -33 -91t-95 -40q-52 0 -90 37q-40 38 -41 94q-1 59 39 96t93 37
t92 -40t37 -93zM822 1579h-3q4 -51 -33 -91t-96 -40q-52 0 -90 37q-40 38 -41 94q-1 59 39 96t94 37t93 -40t37 -93z" />
    <glyph glyph-name="Yacute" unicode="&#xdd;" horiz-adv-x="872" 
d="M508 616l-1 -2q67 119 110 273q25 80 37 171q12 110 11 165q0 5 -2 25q-1 14 -3 22q-1 5 -1 16v15q0 5 2 11l3 9q2 5 3 6q17 17 39 24q52 17 96 9q43 -10 43 -51q10 -86 4 -165q-14 -259 -129 -512q-76 -172 -195 -324q-113 -146 -252 -240q-103 -70 -132 -70
q-18 0 -30 12q-53 52 -54 120q0 29 25 39q99 47 188 132q53 51 101 107q10 12 4 30q-16 49 -39 113q-27 76 -36 98q-38 102 -87 243q-3 9 -83 234q-10 27 -18.5 51t-12.5 35t-4 12q-10 31 15 49q39 33 90 39q57 11 71 -24q25 -77 84 -241q7 -20 27 -76t32 -89
q43 -121 65 -188zM527 1458v1q-45 -10 -100 63q-35 50 -15 54q58 51 93 125q35 75 35 114q0 31 84 34q102 5 129 -39q12 -20 0 -45q-99 -205 -226 -307z" />
    <glyph glyph-name="Thorn" unicode="&#xde;" horiz-adv-x="915" 
d="M375 328l-3 -3q-16 -6 -51 -15q-11 -3 -28.5 -7.5t-22.5 -5.5q0 -308 56 -403q2 -4 -2 -7.5t-15 -7.5q-63 -20 -137 0q-44 12 -51 39q-17 61 -25 133q-18 209 -10 381q12 211 27 295q51 281 57 311q88 368 123 369q61 4 126 -29q2 -2 -1 -21q-1 -7 -4 -23.5t-4 -23.5
q-3 -18 -11 -54q-6 -27 -9 -45q-1 -6 -1.5 -10t-0.5 -6t1 -2q67 17 123 24q136 12 252 -27q150 -52 186 -177t-34 -266q-70 -140 -216 -253q-140 -109 -325 -166zM286 615l-4 -1q-8 -82 -9 -123q37 0 126 39q88 39 140 74q109 76 172 160q50 66 60 127q11 63 -36 98
q-21 15 -45 25q-66 26 -168 15q-56 -6 -157 -39q-20 -6 -23 -22q-2 -11 -18 -97q-10 -56 -16 -97q-15 -94 -22 -159z" />
    <glyph glyph-name="germandbls" unicode="&#xdf;" horiz-adv-x="1200" 
d="M254 836l-1 -1q13 0 107 49q99 52 132 73l36 27q24 18 48 34q9 6 43 32q24 18 42 38q15 17 27 35q-63 28 -241 -57q-179 -86 -183 -138zM701 300v3q160 34 222 80q35 29 51 57q27 44 -29 88q-33 28 -84 47q-102 43 -255 43t-249 -34q-75 -26 -114 -47q8 -63 9 -91
q0 -13 22 -132l78 -223q-27 -49 -71 -67q-10 -4 -27 -10.5t-20 -7.5q-33 -6 -50 23q-32 51 -66 153q-68 224 -57 492q11 269 75 404q27 55 167 126q141 71 284 98q145 27 239 -16q98 -62 66 -171q-17 -52 -61 -108q-39 -47 -81 -83q-46 -39 -97 -75q-54 -37 -66 -48
q193 0 301 -39q97 -33 168 -88q89 -70 106 -162q12 -71 -16 -139q-33 -79 -111 -137q-122 -94 -288 -127q-14 -5 -29 12t-24 45q-10 32 -14 58q-5 31 1 52q6 22 20 24z" />
    <glyph glyph-name="agrave" unicode="&#xe0;" horiz-adv-x="937" 
d="M877 655l1 -1q6 -76 2 -217q0 -12 -11 -105q-13 -112 -41 -205q-10 -30 -17 -53q-11 -37 -15 -47q-8 -29 -39 -29q-26 0 -37 4q-45 10 -72 33q-27 19 -33 47q-78 -38 -147 -51q-50 -7 -75 -9q-37 -4 -54 -6q-102 5 -177 43q-97 53 -119 153q-29 125 84 248q84 90 216 141
q133 51 253 41l48 -6t45 -6q-4 48 -9 76q-6 51 -18 108q-38 163 -97 262q-49 82 -124 85t-135 -60t-66 -159v-27q0 -23 -1 -33q-1 -14 -6 -28q-7 -32 -63 -37q-48 -4 -81 8q-39 18 -27 123q12 104 59 191q67 124 169 170q104 47 204 20t189 -117t129 -223q34 -114 47 -201
q14 -97 18 -133zM626 452h-1q-49 14 -123 3q-75 -12 -154 -56q-43 -22 -82 -62q-38 -39 -39 -76q-4 -18 20 -33q23 -14 58 -19q34 -4 67 -3q65 1 129 29q88 34 145 96q84 89 -20 121zM502 1472h-1q-127 102 -226 307q-29 59 63 78q84 18 135 -9q16 -7 16 -20q0 -39 35 -117
q34 -77 99 -123l4 -6q2 -23 -43 -70t-82 -40z" />
    <glyph glyph-name="aacute" unicode="&#xe1;" horiz-adv-x="937" 
d="M877 655l1 -1q6 -76 2 -217q0 -12 -11 -105q-13 -112 -41 -205q-10 -30 -17 -53q-11 -37 -15 -47q-8 -29 -39 -29q-26 0 -37 4q-45 10 -72 33q-27 19 -33 47q-78 -38 -147 -51q-50 -7 -75 -9q-37 -4 -54 -6q-102 5 -177 43q-97 53 -119 153q-29 125 84 248q84 90 216 141
q133 51 253 41l48 -6t45 -6q-4 48 -9 76q-6 51 -18 108q-38 163 -97 262q-49 82 -124 85t-135 -60t-66 -159v-27q0 -23 -1 -33q-1 -14 -6 -28q-7 -32 -63 -37q-48 -4 -81 8q-39 18 -27 123q12 104 59 191q67 124 169 170q104 47 204 20t189 -117t129 -223q34 -114 47 -201
q14 -97 18 -133zM626 452h-1q-49 14 -123 3q-75 -12 -154 -56q-43 -22 -82 -62q-38 -39 -39 -76q-4 -18 20 -33q23 -14 58 -19q34 -4 67 -3q65 1 129 29q88 34 145 96q84 89 -20 121zM528 1459v1q-45 -10 -100 63q-34 49 -15 54q58 51 93 125q35 75 35 114q0 31 84 34
q102 4 129 -39q12 -19 0 -45q-99 -205 -226 -307z" />
    <glyph glyph-name="acircumflex" unicode="&#xe2;" horiz-adv-x="937" 
d="M877 655l1 -1q6 -76 2 -217q0 -12 -11 -105q-13 -112 -41 -205q-10 -30 -17 -53q-11 -37 -15 -47q-8 -29 -39 -29q-26 0 -37 4q-45 10 -72 33q-27 19 -33 47q-78 -38 -147 -51q-50 -7 -75 -9q-37 -4 -54 -6q-102 5 -177 43q-97 53 -119 153q-29 125 84 248q84 90 216 141
q133 51 253 41l48 -6t45 -6q-4 48 -9 76q-6 51 -18 108q-38 163 -97 262q-49 82 -124 85t-135 -60t-66 -159v-27q0 -23 -1 -33q-1 -14 -6 -28q-7 -32 -63 -37q-48 -4 -81 8q-39 18 -27 123q12 104 59 191q67 124 169 170q104 47 204 20t189 -117t129 -223q34 -114 47 -201
q14 -97 18 -133zM626 452h-1q-49 14 -123 3q-75 -12 -154 -56q-43 -22 -82 -62q-38 -39 -39 -76q-4 -18 20 -33q23 -14 58 -19q34 -4 67 -3q65 1 129 29q88 34 145 96q84 89 -20 121zM688 1447l-5 -4q-8 10 -39 37q-37 38 -103 99q-71 65 -105 102q-5 -8 -15 -24.5
t-19 -31.5t-17 -29q-29 -48 -48 -81q-22 -37 -36 -64q-25 -35 -72 -9q-38 18 -55 45t-6 53q13 22 104 143t106 139q2 2 7.5 7t9.5 9q12 12 15 16q4 6 12 12q7 6 13 6q4 0 14 -2q7 -2 15 -9q49 -40 110 -97q27 -25 58 -53.5t34 -31.5q2 -1 57 -53q43 -40 69 -60
q25 -22 16 -54q-22 -45 -59 -67q-35 -21 -61 2z" />
    <glyph glyph-name="atilde" unicode="&#xe3;" horiz-adv-x="978" 
d="M877 655l1 -1q6 -76 2 -217q0 -12 -11 -105q-13 -112 -41 -205q-10 -30 -17 -53q-11 -37 -15 -47q-8 -29 -39 -29q-26 0 -37 4q-45 10 -72 33q-27 19 -33 47q-78 -38 -147 -51q-50 -7 -75 -9q-37 -4 -54 -6q-102 5 -177 43q-97 53 -119 153q-29 125 84 248q84 90 216 141
q133 51 253 41l48 -6t45 -6q-4 48 -9 76q-6 51 -18 108q-38 163 -97 262q-49 82 -124 85t-135 -60t-66 -159v-27q0 -23 -1 -33q-1 -14 -6 -28q-7 -32 -63 -37q-48 -4 -81 8q-39 18 -27 123q12 104 59 191q67 124 169 170q104 47 204 20t189 -117t129 -223q34 -114 47 -201
q14 -97 18 -133zM626 452h-1q-49 14 -123 3q-75 -12 -154 -56q-43 -22 -82 -62q-38 -39 -39 -76q-4 -18 20 -33q23 -14 58 -19q34 -4 67 -3q65 1 129 29q88 34 145 96q84 89 -20 121zM891 1687l2 -2q33 -50 31 -111q-2 -60 -36 -108q-29 -41 -66 -59q-50 -33 -111 -33
q-16 0 -61 12q-46 12 -98 45q-100 60 -148 99q-16 14 -48 33q-8 5 -18 11t-15.5 9.5t-8.5 5.5q-6 6 -18 9q-8 2 -17 5q-16 13 -28 -7q-8 -11 -2 -27q7 -12 32 -50q28 -42 38 -61q13 -25 6 -34q-19 -20 -135 -45q-12 -1 -22 9q-28 32 -51 66q-29 51 -39 90q-14 57 12 117
q25 59 78 91q58 38 129 30q57 -10 108 -42q61 -38 144 -96q51 -39 104 -69q7 -5 45 -21q33 -12 51 21q6 12 -6 24q-23 27 -47 35t-24 36q0 53 39 113l6 6l6 6q8 8 27 2q28 -7 87 -51q31 -24 54 -59z" />
    <glyph glyph-name="adieresis" unicode="&#xe4;" horiz-adv-x="937" 
d="M877 655l1 -1q6 -76 2 -217q0 -12 -11 -105q-13 -112 -41 -205q-10 -30 -17 -53q-11 -37 -15 -47q-8 -29 -39 -29q-26 0 -37 4q-45 10 -72 33q-27 19 -33 47q-78 -38 -147 -51q-50 -7 -75 -9q-37 -4 -54 -6q-102 5 -177 43q-97 53 -119 153q-29 125 84 248q84 90 216 141
q133 51 253 41l48 -6t45 -6q-4 48 -9 76q-6 51 -18 108q-38 163 -97 262q-49 82 -124 85t-135 -60t-66 -159v-27q0 -23 -1 -33q-1 -14 -6 -28q-7 -32 -63 -37q-48 -4 -81 8q-39 18 -27 123q12 104 59 191q67 124 169 170q104 47 204 20t189 -117t129 -223q34 -114 47 -201
q14 -97 18 -133zM626 452h-1q-49 14 -123 3q-75 -12 -154 -56q-43 -22 -82 -62q-38 -39 -39 -76q-4 -18 20 -33q23 -14 58 -19q34 -4 67 -3q65 1 129 29q88 34 145 96q84 89 -20 121zM461 1578h-2q4 -51 -33 -91t-95 -40q-52 0 -90 37q-40 38 -41 94q-2 58 39 96
q40 37 93 37t92 -40t37 -93zM825 1578h-3q4 -51 -33 -91t-96 -40q-52 0 -90 37q-40 38 -41 94q-2 58 39 96q40 37 94 37t93 -40t37 -93z" />
    <glyph glyph-name="aring" unicode="&#xe5;" horiz-adv-x="937" 
d="M877 655l1 -1q6 -76 2 -217q0 -12 -11 -105q-13 -112 -41 -205q-10 -30 -17 -53q-11 -37 -15 -47q-8 -29 -39 -29q-26 0 -37 4q-45 10 -72 33q-27 19 -33 47q-78 -38 -147 -51q-50 -7 -75 -9q-37 -4 -54 -6q-102 5 -177 43q-97 53 -119 153q-29 125 84 248q84 90 216 141
q133 51 253 41l48 -6t45 -6q-4 48 -9 76q-6 51 -18 108q-38 163 -97 262q-49 82 -124 85t-135 -60t-66 -159v-27q0 -23 -1 -33q-1 -14 -6 -28q-7 -32 -63 -37q-48 -4 -81 8q-39 18 -27 123q12 104 59 191q67 124 169 170q104 47 204 20t189 -117t129 -223q34 -114 47 -201
q14 -97 18 -133zM626 452h-1q-49 14 -123 3q-75 -12 -154 -56q-43 -22 -82 -62q-38 -39 -39 -76q-4 -18 20 -33q23 -14 58 -19q34 -4 67 -3q65 1 129 29q88 34 145 96q84 89 -20 121zM692 1621q0 -77 -51 -120q-52 -44 -114 -44q-64 0 -114 43q-51 43 -51 121q0 77 51 120
q50 43 114 43t114 -43q51 -43 51 -120zM584 1619l-1 1q0 35 -28 48q-29 14 -57 -1t-28 -48q0 -37 29 -51t57 1t28 50z" />
    <glyph glyph-name="ae" unicode="&#xe6;" horiz-adv-x="1701" 
d="M45 215l-6 -1q-29 125 84 248q84 90 216 141q133 51 253 41l48 -6t45 -6q-4 48 -9 76q-6 51 -18 108q-38 163 -97 262q-49 82 -124 85t-135 -60t-66 -159v-27q0 -23 -1 -33q-1 -14 -6 -28q-7 -32 -63 -37q-48 -4 -81 8q-39 18 -27 123q12 104 59 191q85 162 228 192
t272 -64q129 -95 186 -270q34 73 72 119q96 121 237 154q124 27 236 -25q127 -57 216 -188q74 -111 99 -234q6 -31 -20 -51q-126 -98 -249 -137q-118 -39 -192 -45q-91 -10 -119 -10h-141q19 -142 86 -243q45 -72 123 -111q52 -27 113 -20q50 5 105 49q30 24 43 39
q14 18 39 12q83 -25 109 -84q10 -25 -6 -43q-64 -79 -147 -119q-67 -33 -158 -36q-131 -6 -261 94q-79 59 -131 147q-7 -71 -30 -138q-10 -30 -17 -53q-11 -37 -15 -47q-8 -29 -39 -29q-63 0 -109 37q-27 19 -33 47q-260 -123 -450 -23q-97 54 -119 154zM221 261h-1
q-4 -18 20 -33q23 -14 58 -19q34 -4 67 -3q65 1 129 29q88 34 145 96q84 89 -20 121q-49 14 -123 3q-75 -12 -154 -56q-43 -22 -82 -62q-38 -39 -39 -76zM929 767v2q20 -5 72 -7q50 -2 62 0q98 8 143 15q178 31 252 87q-10 21 -36 70q-34 65 -101 117q-45 34 -104 45
q-80 12 -146 -37q-59 -45 -93 -115q-38 -81 -49 -177z" />
    <glyph glyph-name="ccedilla" unicode="&#xe7;" horiz-adv-x="911" 
d="M862 383l-2 -1q12 -12 6 -29q-50 -194 -199 -279q-150 -85 -316 -21q-102 43 -180 123q-131 142 -131 410q6 276 168 495q71 95 172 156q79 41 147 41q73 0 138 -49q119 -109 96 -288t-147 -281q-2 -2 -6 -4t-5 -3q-6 -4 -9 -5q-4 -2 -9 0q-3 1 -6 1q-2 0 -9 4q-8 5 -9 7
q-2 4 -12 11q-11 7 -15 12q-58 76 -42 100q135 201 67 291q-32 45 -103 -7t-127 -138q-66 -102 -90 -234q-31 -134 5 -261q36 -126 134 -183q28 -17 45 -24q84 -38 158 12q73 49 108 153q6 27 35 33q86 11 138 -42zM354 -361l2 -4q10 23 39 18q36 -2 80 -2q104 0 102 29
q0 27 -78 36q-22 4 -47 6q-34 0 -62 2q-26 4 -24 39q0 18 -4 102t-4 115q0 21 6 28q5 6 26 16q19 6 63 2q46 -5 65 -15q4 -1 7 -6q4 -6 6 -10q1 -2 4 -11q1 -3 1 -16v-18v-22v-25v-15q62 -18 108 -47q61 -34 94 -90q45 -70 9 -139q-55 -110 -234 -129q-47 -6 -150 2
q-34 1 -36 35q-8 66 27 119z" />
    <glyph glyph-name="egrave" unicode="&#xe8;" horiz-adv-x="968" 
d="M936 825h-6q6 -31 -21 -51q-57 -42 -79 -57q-25 -17 -70 -40q-41 -21 -99 -40q-119 -39 -192 -45q-91 -10 -119 -10h-2h-2h-2h-2h-2h-2h-2h-2h-2h-2h-2h-4h-2h-2h-2h-3h-4h-2h-4h-2h-2h-4h-2h-4h-2h-4h-4h-2h-4h-5h-2h-4h-4h-2h-4h-4h-4h-4h-4h-4h-5h-4h-16
q19 -142 86 -243q45 -72 123 -111q52 -27 113 -20q50 5 105 49q30 24 43 39q13 18 39 12q84 -26 108 -84q10 -25 -6 -43q-64 -79 -147 -119q-67 -33 -158 -36q-131 -6 -261 94q-118 92 -186 261q-47 120 -50 287q-3 168 42 293q32 88 86 157q96 121 238 154q124 27 236 -25
q127 -57 216 -188q73 -110 100 -234zM727 864l-1 3q-13 28 -37 70q-35 66 -99 117q-45 34 -104 45q-80 12 -146 -37q-59 -45 -93 -115q-38 -81 -49 -177q20 -5 72 -7q50 -2 62 0q98 8 143 15q172 27 252 86zM495 1476h-1q-127 102 -226 307q-28 59 63 78q84 18 135 -9
q16 -7 16 -20q0 -39 35 -117q35 -77 99 -123l4 -6q2 -23 -43 -70t-82 -40z" />
    <glyph glyph-name="eacute" unicode="&#xe9;" horiz-adv-x="968" 
d="M936 825h-6q6 -31 -21 -51q-57 -42 -79 -57q-25 -17 -70 -40q-41 -21 -99 -40q-119 -39 -192 -45q-91 -10 -119 -10h-2h-2h-2h-2h-2h-2h-2h-2h-2h-2h-2h-4h-2h-2h-2h-3h-4h-2h-4h-2h-2h-4h-2h-4h-2h-4h-4h-2h-4h-5h-2h-4h-4h-2h-4h-4h-4h-4h-4h-4h-5h-4h-16
q19 -142 86 -243q45 -72 123 -111q52 -27 113 -20q50 5 105 49q30 24 43 39q13 18 39 12q84 -26 108 -84q10 -25 -6 -43q-64 -79 -147 -119q-67 -33 -158 -36q-131 -6 -261 94q-118 92 -186 261q-47 120 -50 287q-3 168 42 293q32 88 86 157q96 121 238 154q124 27 236 -25
q127 -57 216 -188q73 -110 100 -234zM727 864l-1 3q-13 28 -37 70q-35 66 -99 117q-45 34 -104 45q-80 12 -146 -37q-59 -45 -93 -115q-38 -81 -49 -177q20 -5 72 -7q50 -2 62 0q98 8 143 15q172 27 252 86zM521 1463v1q-45 -10 -100 63q-35 49 -15 54q58 51 93 125
q35 75 35 114q0 31 84 34q102 4 129 -39q12 -19 0 -45q-99 -205 -226 -307z" />
    <glyph glyph-name="ecircumflex" unicode="&#xea;" horiz-adv-x="968" 
d="M936 825h-6q6 -31 -21 -51q-57 -42 -79 -57q-25 -17 -70 -40q-41 -21 -99 -40q-119 -39 -192 -45q-91 -10 -119 -10h-2h-2h-2h-2h-2h-2h-2h-2h-2h-2h-2h-4h-2h-2h-2h-3h-4h-2h-4h-2h-2h-4h-2h-4h-2h-4h-4h-2h-4h-5h-2h-4h-4h-2h-4h-4h-4h-4h-4h-4h-5h-4h-16
q19 -142 86 -243q45 -72 123 -111q52 -27 113 -20q50 5 105 49q30 24 43 39q13 18 39 12q84 -26 108 -84q10 -25 -6 -43q-64 -79 -147 -119q-67 -33 -158 -36q-131 -6 -261 94q-118 92 -186 261q-47 120 -50 287q-3 168 42 293q32 88 86 157q96 121 238 154q124 27 236 -25
q127 -57 216 -188q73 -110 100 -234zM727 864l-1 3q-13 28 -37 70q-35 66 -99 117q-45 34 -104 45q-80 12 -146 -37q-59 -45 -93 -115q-38 -81 -49 -177q20 -5 72 -7q50 -2 62 0q98 8 143 15q172 27 252 86zM681 1451l-5 -4q-8 10 -39 37q-37 38 -103 99q-70 65 -105 102
l-51 -85q-28 -48 -48 -81q-22 -37 -36 -64q-26 -35 -72 -9q-38 18 -55 45t-6 53q13 22 104 143t106 139q2 2 7.5 7t9.5 9q12 12 15 16q5 6 12 12t13 6q4 0 14 -2q8 -2 15 -9q49 -40 110 -97q27 -25 58 -53.5t34 -31.5q2 -1 57 -53q44 -40 69 -60q25 -22 16 -54
q-22 -45 -59 -67q-35 -21 -61 2z" />
    <glyph glyph-name="edieresis" unicode="&#xeb;" horiz-adv-x="968" 
d="M936 825h-6q6 -31 -21 -51q-57 -42 -79 -57q-25 -17 -70 -40q-41 -21 -99 -40q-119 -39 -192 -45q-91 -10 -119 -10h-2h-2h-2h-2h-2h-2h-2h-2h-2h-2h-2h-4h-2h-2h-2h-3h-4h-2h-4h-2h-2h-4h-2h-4h-2h-4h-4h-2h-4h-5h-2h-4h-4h-2h-4h-4h-4h-4h-4h-4h-5h-4h-16
q19 -142 86 -243q45 -72 123 -111q52 -27 113 -20q50 5 105 49q30 24 43 39q13 18 39 12q84 -26 108 -84q10 -25 -6 -43q-64 -79 -147 -119q-67 -33 -158 -36q-131 -6 -261 94q-118 92 -186 261q-47 120 -50 287q-3 168 42 293q32 88 86 157q96 121 238 154q124 27 236 -25
q127 -57 216 -188q73 -110 100 -234zM727 864l-1 3q-13 28 -37 70q-35 66 -99 117q-45 34 -104 45q-80 12 -146 -37q-59 -45 -93 -115q-38 -81 -49 -177q20 -5 72 -7q50 -2 62 0q98 8 143 15q172 27 252 86zM454 1582h-2q4 -51 -33 -91t-95 -40q-52 0 -90 37q-40 38 -41 94
q-1 58 39 96q40 37 93 37t92 -40t37 -93zM818 1582h-3q4 -51 -33 -91t-96 -40q-52 0 -90 37q-40 38 -41 94q-1 58 39 96q40 37 94 37t93 -40t37 -93z" />
    <glyph glyph-name="igrave" unicode="&#xec;" horiz-adv-x="458" 
d="M393 819l1 2q-78 -411 2 -792q-19 0 -36 -1t-47 -1h-45q-24 0 -39 3t-16 7q-29 95 -30 429t24 405q17 27 58 23q42 -4 87 -30t41 -45zM314 987l-1 -1q-128 102 -225 307q-28 59 63 78q83 18 135 -8q16 -7 16 -21q0 -40 35 -116q35 -75 98 -122l4 -6q2 -23 -43 -71
q-45 -47 -82 -40z" />
    <glyph glyph-name="iacute" unicode="&#xed;" horiz-adv-x="458" 
d="M317 819l1 2q-78 -411 2 -792q-19 0 -36 -1t-47 -1h-45q-24 0 -39 3t-16 7q-29 95 -30 429t24 405q17 27 58 23q42 -4 87 -30t41 -45zM208 991v1q-45 -11 -101 63q-35 49 -15 54q58 51 93 125q35 75 35 114q0 31 84 34q102 4 129 -39q12 -19 0 -45q-97 -205 -225 -307z
" />
    <glyph glyph-name="icircumflex" unicode="&#xee;" horiz-adv-x="745" 
d="M500 819l-2 2q-78 -411 2 -792q-19 0 -36 -1t-47 -1h-45q-24 0 -37 3q-14 3 -17 7q-29 96 -29 429q0 334 24 405q17 28 59 23q42 -4 87 -30t41 -45zM600 985l-6 -5q-8 10 -39 37q-37 38 -103 99q-70 64 -105 102q-23 -38 -51 -84q-20 -33 -48 -80q-22 -37 -36 -64
q-26 -34 -72 -9q-38 18 -55 45t-6 53q13 22 104 143t106 139l17 17l16 16q7 7 12 11q8 6 13 6q4 0 14 -2q7 -1 15 -9q49 -40 110 -97q63 -59 92 -84q14 -12 57 -54q41 -40 69 -61q25 -22 16 -53q-23 -47 -59 -68q-35 -21 -61 2z" />
    <glyph glyph-name="idieresis" unicode="&#xef;" horiz-adv-x="729" 
d="M492 819l-1 2q-78 -411 2 -792q-19 0 -36 -1t-47 -1h-45q-24 0 -39 3t-16 7q-29 96 -29 429q0 334 24 405q17 28 59 23q42 -4 87 -30t41 -45zM341 1120h-2q4 -51 -33 -91t-95 -40q-52 0 -90 37q-40 38 -41 94q-2 58 39 96q40 37 93 37t92 -40t37 -93zM706 1120h-2
q4 -51 -33 -91t-95 -40q-52 0 -90 37q-40 38 -41 94q-1 58 38 96q38 37 93 37q54 0 93 -40t37 -93z" />
    <glyph glyph-name="eth" unicode="&#xf0;" horiz-adv-x="993" 
d="M25 295l-2 -2q-27 156 114 300t335 189q80 20 170 15q19 -2 41 -7t39 -7v156v4q-50 2 -109 2q-37 0 -48 51q-10 55 2 98t44 38q16 -2 27 -2q20 0 31 1q22 2 24 2q-12 71 -34 112q-13 31 15 51q45 39 96 54q37 19 55 -24q43 -91 63 -197l92 -2q17 0 27 -10q11 -11 14 -21
t9 -33q8 -36 -4 -78q-12 -44 -41 -44h-76q20 -366 -88 -879q-11 -45 -61 -38q-46 6 -86 30q-41 24 -33 56q18 68 18 77q-15 -6 -27 -13q-16 -9 -30 -15q-15 -6 -25 -13q-88 -43 -185 -55q-55 -8 -111 -2q-124 11 -197 87q-47 53 -59 119zM205 330l-2 2q5 -45 79 -57
q75 -12 125 9q115 28 202 99q55 46 84 98q17 33 18 78q-11 46 -88 53q-66 0 -101 -8q-151 -35 -254 -141q-63 -71 -63 -133z" />
    <glyph glyph-name="ntilde" unicode="&#xf1;" horiz-adv-x="962" 
d="M63 1139l3 -2q-8 27 41 59q48 31 86 36q25 2 39 -24q37 -69 52 -180q7 -45 9 -65q7 11 21 30q10 15 20 27q136 190 293 190q79 -2 141 -54q63 -57 96 -149q20 -59 30 -129q23 -162 -22 -430q-45 -270 -90 -366q-12 -27 -34 -27q-71 0 -127 52q-23 18 -11 47
q104 266 105 483q4 44 4 78q0 111 -21 186q-13 60 -35 94q-21 33 -52 27q-28 -7 -59 -35q-60 -54 -119 -150q-70 -122 -127 -355q-10 -40 -27 -123q-39 -226 -23 -315q5 -27 -102 -29q-90 -1 -91 18q0 12 26 396t26 389q-2 168 -52 321zM894 1686l2 -2q33 -50 31 -111
q-1 -60 -36 -108q-29 -41 -66 -59q-49 -33 -111 -33q-16 0 -61 12q-46 12 -98 45q-100 60 -148 99q-17 13 -48 33q-8 5 -18 11t-15.5 9.5t-8.5 5.5q-6 6 -18 9q-8 2 -17 5q-16 13 -28 -7q-8 -11 -2 -27q7 -12 32 -50q28 -42 38 -61q13 -25 6 -34q-20 -19 -135 -45
q-12 -1 -22 9q-29 31 -51 66q-28 51 -39 90q-13 57 12 117q25 59 78 91q59 37 129 30q57 -11 108 -42q62 -37 144 -96q51 -39 104 -69q8 -4 45 -21q33 -12 51 21q6 12 -6 24q-23 27 -47 35q-24 7 -24 36q0 53 39 113l6 6l6 6q8 8 27 2q29 -8 87 -51q31 -24 54 -59z" />
    <glyph glyph-name="ograve" unicode="&#xf2;" 
d="M926 455l2 -2q-44 -132 -121 -224q-137 -163 -327 -171q-160 -2 -288 117q-130 125 -161 330q-39 279 96 498q104 169 267 224q164 56 315 -34q114 -67 179 -190q66 -125 72 -265q6 -142 -34 -283zM735 469l-2 1q61 152 36 312q-8 52 -30 101q-39 100 -119 147
q-61 37 -129 28q-66 -9 -124 -59q-89 -77 -126 -189q-34 -90 -33 -196t39 -190q34 -88 101 -138q66 -50 146 -39q76 7 142 72t99 150zM502 1472h-1q-127 102 -226 307q-29 59 63 78q84 18 135 -9q16 -7 16 -20q0 -39 35 -117q34 -77 99 -123l4 -6q2 -23 -43 -70t-82 -40z
" />
    <glyph glyph-name="oacute" unicode="&#xf3;" 
d="M926 455l2 -2q-44 -132 -121 -224q-137 -163 -327 -171q-160 -2 -288 117q-130 125 -161 330q-39 279 96 498q104 169 267 224q164 56 315 -34q114 -67 179 -190q66 -125 72 -265q6 -142 -34 -283zM735 469l-2 1q61 152 36 312q-8 52 -30 101q-39 100 -119 147
q-61 37 -129 28q-66 -9 -124 -59q-89 -77 -126 -189q-34 -90 -33 -196t39 -190q34 -88 101 -138q66 -50 146 -39q76 7 142 72t99 150zM528 1459v1q-45 -10 -100 63q-34 49 -15 54q58 51 93 125q35 75 35 114q0 31 84 34q102 4 129 -39q12 -19 0 -45q-99 -205 -226 -307z" />
    <glyph glyph-name="ocircumflex" unicode="&#xf4;" 
d="M926 455l2 -2q-44 -132 -121 -224q-137 -163 -327 -171q-160 -2 -288 117q-130 125 -161 330q-39 279 96 498q104 169 267 224q164 56 315 -34q114 -67 179 -190q66 -125 72 -265q6 -142 -34 -283zM735 469l-2 1q61 152 36 312q-8 52 -30 101q-39 100 -119 147
q-61 37 -129 28q-66 -9 -124 -59q-89 -77 -126 -189q-34 -90 -33 -196t39 -190q34 -88 101 -138q66 -50 146 -39q76 7 142 72t99 150zM688 1447l-5 -4q-8 10 -39 37q-37 38 -103 99q-71 65 -105 102q-5 -8 -15 -24.5t-19 -31.5t-17 -29q-29 -48 -48 -81q-22 -37 -36 -64
q-25 -35 -72 -9q-38 18 -55 45t-6 53q13 22 104 143t106 139q2 2 7.5 7t9.5 9q12 12 15 16q4 6 12 12q7 6 13 6q4 0 14 -2q7 -2 15 -9q49 -40 110 -97q27 -25 58 -53.5t34 -31.5q2 -1 57 -53q43 -40 69 -60q25 -22 16 -54q-22 -45 -59 -67q-35 -21 -61 2z" />
    <glyph glyph-name="otilde" unicode="&#xf5;" 
d="M926 455l2 -2q-44 -132 -121 -224q-137 -163 -327 -171q-160 -2 -288 117q-130 125 -161 330q-39 279 96 498q104 169 267 224q164 56 315 -34q114 -67 179 -190q66 -125 72 -265q6 -142 -34 -283zM735 469l-2 1q61 152 36 312q-8 52 -30 101q-39 100 -119 147
q-61 37 -129 28q-66 -9 -124 -59q-89 -77 -126 -189q-34 -90 -33 -196t39 -190q34 -88 101 -138q66 -50 146 -39q76 7 142 72t99 150zM891 1687l2 -2q33 -50 31 -111q-2 -60 -36 -108q-29 -41 -66 -59q-50 -33 -111 -33q-16 0 -61 12q-46 12 -98 45q-100 60 -148 99
q-16 14 -48 33q-8 5 -18 11t-15.5 9.5t-8.5 5.5q-6 6 -18 9q-8 2 -17 5q-16 13 -28 -7q-8 -11 -2 -27q7 -12 32 -50q28 -42 38 -61q13 -25 6 -34q-19 -20 -135 -45q-12 -1 -22 9q-28 32 -51 66q-29 51 -39 90q-14 57 12 117q25 59 78 91q58 38 129 30q57 -10 108 -42
q61 -38 144 -96q51 -39 104 -69q7 -5 45 -21q33 -12 51 21q6 12 -6 24q-23 27 -47 35t-24 36q0 53 39 113l6 6l6 6q8 8 27 2q28 -7 87 -51q31 -24 54 -59z" />
    <glyph glyph-name="odieresis" unicode="&#xf6;" 
d="M926 455l2 -2q-44 -132 -121 -224q-137 -163 -327 -171q-160 -2 -288 117q-130 125 -161 330q-39 279 96 498q104 169 267 224q164 56 315 -34q114 -67 179 -190q66 -125 72 -265q6 -142 -34 -283zM735 469l-2 1q61 152 36 312q-8 52 -30 101q-39 100 -119 147
q-61 37 -129 28q-66 -9 -124 -59q-89 -77 -126 -189q-34 -90 -33 -196t39 -190q34 -88 101 -138q66 -50 146 -39q76 7 142 72t99 150zM461 1578h-2q4 -51 -33 -91t-95 -40q-52 0 -90 37q-40 38 -41 94q-2 58 39 96q40 37 93 37t92 -40t37 -93zM825 1578h-3q4 -51 -33 -91
t-96 -40q-52 0 -90 37q-40 38 -41 94q-2 58 39 96q40 37 94 37t93 -40t37 -93z" />
    <glyph glyph-name="oslash" unicode="&#xf8;" 
d="M29 506l-2 -2q-39 279 96 498q85 140 216 204q131 65 261 32l16 43q8 25 18 33t33 6q77 -4 117 -45q12 -12 15 -21q5 -10 0 -21l-31 -84q134 -116 177 -313t-20 -382q-44 -132 -121 -224q-136 -164 -327 -171q-53 0 -92 9l-8 -25q0 -5 -4 -13q-5 -10 -6 -13
q-5 -13 -27 -18t-60 6l-58 29q-4 1 -19 15q-15 13 -6 39l22 64q-8 6 -14 12q-7 8 -15 12q-128 125 -161 330zM238 811h-1q-34 -90 -33 -196t39 -190q19 -45 43 -81l254 713q-92 12 -176 -58q-88 -75 -126 -188zM443 246l-1 2q20 -2 45 0q76 7 142 72q66 64 99 150
q62 152 36 312q-8 52 -30 101q-19 43 -37 69q-202 -558 -254 -706z" />
    <glyph glyph-name="ugrave" unicode="&#xf9;" horiz-adv-x="942" 
d="M899 113l-4 -2q-27 -49 -119 -78q-28 -7 -42 18q-70 136 -84 305q-6 -11 -19 -28q-14 -19 -22 -28q-78 -103 -151 -147q-77 -45 -144 -43q-83 5 -139 55q-66 57 -96 147q-59 182 -30 461q11 93 23 146q46 212 86 290q12 27 37 27q70 0 127 -51q20 -18 8 -47
q-55 -123 -85 -330q-30 -203 -10 -364q10 -79 34 -115.5t62 -29.5q26 4 61 36q64 56 117 151q85 158 129 324q6 25 27 125q4 14 7 51q1 13 3 30.5t2 20.5q8 35 8 125q0 17 48 26q50 9 98 5q50 -5 50 -16q0 -106 -25 -240q-45 -260 -16 -565q6 -67 24 -131q3 -12 17 -48
t14 -37q10 -31 4 -43zM498 1471h-1q-127 102 -226 307q-29 58 63 78q84 18 135 -9q16 -7 16 -20q0 -39 35 -117q34 -76 99 -123l4 -6q2 -23 -43 -70t-82 -40z" />
    <glyph glyph-name="uacute" unicode="&#xfa;" horiz-adv-x="942" 
d="M899 113l-4 -2q-27 -49 -119 -78q-28 -7 -42 18q-70 136 -84 305q-6 -11 -19 -28q-14 -19 -22 -28q-78 -103 -151 -147q-77 -45 -144 -43q-83 5 -139 55q-66 57 -96 147q-59 182 -30 461q11 93 23 146q46 212 86 290q12 27 37 27q70 0 127 -51q20 -18 8 -47
q-55 -123 -85 -330q-30 -203 -10 -364q10 -79 34 -115.5t62 -29.5q26 4 61 36q64 56 117 151q85 158 129 324q6 25 27 125q4 14 7 51q1 13 3 30.5t2 20.5q8 35 8 125q0 17 48 26q50 9 98 5q50 -5 50 -16q0 -106 -25 -240q-45 -260 -16 -565q6 -67 24 -131q3 -12 17 -48
t14 -37q10 -31 4 -43zM524 1458v1q-45 -10 -100 63q-34 50 -15 54q58 51 93 125q35 75 35 114q0 31 84 34q102 5 129 -39q12 -20 0 -45q-99 -205 -226 -307z" />
    <glyph glyph-name="ucircumflex" unicode="&#xfb;" horiz-adv-x="942" 
d="M899 113l-4 -2q-27 -49 -119 -78q-28 -7 -42 18q-70 136 -84 305q-6 -11 -19 -28q-14 -19 -22 -28q-78 -103 -151 -147q-77 -45 -144 -43q-83 5 -139 55q-66 57 -96 147q-59 182 -30 461q11 93 23 146q46 212 86 290q12 27 37 27q70 0 127 -51q20 -18 8 -47
q-55 -123 -85 -330q-30 -203 -10 -364q10 -79 34 -115.5t62 -29.5q26 4 61 36q64 56 117 151q85 158 129 324q6 25 27 125q4 14 7 51q1 13 3 30.5t2 20.5q8 35 8 125q0 17 48 26q50 9 98 5q50 -5 50 -16q0 -106 -25 -240q-45 -260 -16 -565q6 -67 24 -131q3 -12 17 -48
t14 -37q10 -31 4 -43zM684 1446l-5 -4q-8 10 -39 37q-37 38 -103 99q-71 64 -105 102l-51 -85q-29 -48 -48 -81q-22 -37 -36 -64q-25 -34 -72 -9q-38 18 -55 45t-6 53q13 22 104 143t106 139q2 2 7.5 7t9.5 9q12 12 15 16q4 6 12 12t13 6q4 0 14 -2q7 -1 15 -9
q49 -40 110 -97q27 -25 58 -53.5t34 -31.5q2 -1 57 -53q43 -41 69 -60q25 -22 16 -54q-22 -45 -59 -67q-35 -21 -61 2z" />
    <glyph glyph-name="udieresis" unicode="&#xfc;" horiz-adv-x="942" 
d="M899 113l-4 -2q-27 -49 -119 -78q-28 -7 -42 18q-70 136 -84 305q-6 -11 -19 -28q-14 -19 -22 -28q-78 -103 -151 -147q-77 -45 -144 -43q-83 5 -139 55q-66 57 -96 147q-59 182 -30 461q11 93 23 146q46 212 86 290q12 27 37 27q70 0 127 -51q20 -18 8 -47
q-55 -123 -85 -330q-30 -203 -10 -364q10 -79 34 -115.5t62 -29.5q26 4 61 36q64 56 117 151q85 158 129 324q6 25 27 125q4 14 7 51q1 13 3 30.5t2 20.5q8 35 8 125q0 17 48 26q50 9 98 5q50 -5 50 -16q0 -106 -25 -240q-45 -260 -16 -565q6 -67 24 -131q3 -12 17 -48
t14 -37q10 -31 4 -43zM457 1577h-2q4 -51 -33 -91t-95 -40q-52 0 -90 37q-40 38 -41 94q-2 59 39 96q40 37 93 37t92 -40t37 -93zM821 1577h-3q4 -51 -33 -91t-96 -40q-52 0 -90 37q-40 38 -41 94q-2 59 39 96q40 37 94 37t93 -40t37 -93z" />
    <glyph glyph-name="yacute" unicode="&#xfd;" 
d="M731 1114v-1q34 34 101 42q66 8 77 -21q16 -44 31 -182q15 -135 15 -225q0 -393 -186 -705q-186 -311 -512 -397q-301 -79 -588 75q-88 55 -76 96q7 27 45 60q39 34 70 44q19 6 51 -23q122 -83 264 -100t265 37q124 54 225 153q101 100 161 252q60 153 60 327
q-90 -155 -220 -183q-131 -29 -258 85q-128 114 -200 350q-12 40 -21 135q-9 97 -5 150q0 19 21 29t51 12t60 -3q32 -5 50 -16q20 -12 18 -29q8 -123 36 -270q46 -224 162 -258q100 -31 189 104q72 111 99 297q10 71 15 165zM530 1373v1q-45 -10 -100 63q-34 49 -15 54
q58 51 93 125q35 75 35 114q0 31 84 34q102 4 129 -39q12 -19 0 -45q-99 -205 -226 -307z" />
    <glyph glyph-name="thorn" unicode="&#xfe;" horiz-adv-x="915" 
d="M375 328l-3 -3q-16 -6 -51 -15q-11 -3 -28.5 -7.5t-22.5 -5.5q0 -308 56 -403q2 -4 -2 -7.5t-15 -7.5q-63 -20 -137 0q-44 12 -51 39q-17 61 -25 133q-18 209 -10 381q12 211 27 295q51 281 57 311q88 368 123 369q61 4 126 -29q2 -2 -1 -21q-1 -7 -4 -23.5t-4 -23.5
q-3 -18 -11 -54q-6 -27 -9 -45q-1 -6 -1.5 -10t-0.5 -6t1 -2q67 17 123 24q136 12 252 -27q150 -52 186 -177t-34 -266q-70 -140 -216 -253q-140 -109 -325 -166zM286 615l-4 -1q-8 -82 -9 -123q37 0 126 39q88 39 140 74q109 76 172 160q50 66 60 127q11 63 -36 98
q-21 15 -45 25q-66 26 -168 15q-56 -6 -157 -39q-20 -6 -23 -22q-2 -11 -18 -97q-10 -56 -16 -97q-15 -94 -22 -159z" />
    <glyph glyph-name="ydieresis" unicode="&#xff;" 
d="M731 1114v-1q34 34 101 42q66 8 77 -21q16 -44 31 -182q15 -135 15 -225q0 -393 -186 -705q-186 -311 -512 -397q-301 -79 -588 75q-88 55 -76 96q7 27 45 60q39 34 70 44q19 6 51 -23q122 -83 264 -100t265 37q124 54 225 153q101 100 161 252q60 153 60 327
q-90 -155 -220 -183q-131 -29 -258 85q-128 114 -200 350q-12 40 -21 135q-9 97 -5 150q0 19 21 29t51 12t60 -3q32 -5 50 -16q20 -12 18 -29q8 -123 36 -270q46 -224 162 -258q100 -31 189 104q72 111 99 297q10 71 15 165zM461 1560h-2q4 -51 -33 -91t-95 -40
q-51 0 -90 36t-41 95q-2 58 39 96q40 37 93 37t92 -40t37 -93zM825 1560h-3q4 -51 -33 -91t-96 -40q-51 0 -90 36t-41 95q-2 58 39 96q40 37 94 37t93 -40t37 -93z" />
    <glyph glyph-name="OE" unicode="&#x152;" horiz-adv-x="1396" 
d="M96 1042l-1 -2q40 96 94 165q77 89 166 120q119 37 225 -30q58 -37 105 -105q32 -43 55 -96q27 220 60 228q30 8 71 8q64 0 204 4q157 4 163 6q25 1 37 -18q12 -20 18 -58q5 -40 -6 -75q-10 -34 -36 -34q-23 0 -107 -4t-117 -4q-54 0 -90 -4q-23 -78 -36 -231t0 -328
l213 49q35 8 51 -19q37 -55 31 -123q-2 -31 -33 -39q-67 -20 -151 -36t-97 -21q-5 -85 18 -192q231 -33 338 20q31 16 67 -35t36 -100q0 -23 -22 -35q-124 -52 -358 -42q-233 10 -241 84q-11 71 -21 193l-4 -10q-34 -82 -90 -142q-68 -79 -141 -104q-131 -46 -246 30
q-82 52 -141 164q-86 174 -89 403q-3 231 75 413zM206 600l-1 2q8 -209 93 -332q32 -44 64 -60q33 -18 67 -2q26 7 64 45q58 67 98 186q44 143 39 299q-4 156 -57 279q-38 77 -79 111q-52 40 -111 6q-37 -25 -55 -57q-34 -43 -57 -99q-71 -171 -65 -378z" />
    <glyph glyph-name="oe" unicode="&#x153;" horiz-adv-x="1761" 
d="M29 506v-2q-39 279 96 498q104 169 267 224q164 56 315 -34q104 -59 170 -174q27 55 61 98q96 121 238 154q123 27 235 -25q127 -57 216 -188q74 -112 101 -234q6 -31 -21 -51q-126 -98 -249 -137q-118 -39 -192 -45q-91 -10 -119 -10h-141q19 -142 86 -243
q46 -72 122 -111q52 -27 113 -20q50 5 105 49q30 24 43 39q14 18 38 12q83 -25 109 -84q10 -25 -6 -43q-64 -79 -148 -119q-68 -33 -156 -36q-131 -6 -261 94q-110 83 -171 223q-32 -59 -75 -111q-137 -164 -327 -171q-160 -1 -288 117q-128 125 -161 330zM240 811h-2
q-34 -90 -33 -196t39 -190q34 -88 101 -138q66 -50 146 -39q76 7 142 72q66 64 99 150q62 152 36 312q-8 52 -30 101q-39 100 -119 147q-61 37 -129 28q-66 -9 -124 -59q-88 -75 -126 -188zM993 766l-1 2q20 -5 72 -7q50 -2 62 0q98 7 144 15q178 32 252 87q-13 28 -37 70
q-35 66 -99 117q-45 34 -105 45q-80 12 -144 -37q-60 -46 -95 -115q-38 -81 -49 -177z" />
    <glyph glyph-name="Wcircumflex" unicode="&#x174;" horiz-adv-x="1406" 
d="M74 977l-7 -3q46 211 86 291q12 27 37 26q70 0 127 -51q20 -18 8 -47q-47 -107 -75 -261q-56 -302 -12 -459q26 -92 59 -113t90 28q63 56 117 153q85 157 129 323q6 25 27 125q0 3 1 6q1 5 3 18q2 18 3 26q1 12 3 27q2 20 3 29t3 25q1 8 1 18l2 6q0 17 48 26q50 9 98 5
q50 -5 50 -16q0 -34 -25 -166q-28 -156 -36 -299q-8 -142 27 -285t123 -192q66 -13 117 56q52 70 77 188t36 254q11 135 0 263t-39 206q-1 34 42 48t87 6t44 -30q31 -133 34 -318q3 -183 -21 -366q-24 -182 -101 -324q-76 -140 -192 -166q-133 -40 -234 68
q-100 108 -165 311q-98 -148 -189 -203q-77 -45 -144 -43q-83 5 -139 55q-78 71 -111 208q-33 138 -27 275q6 134 35 272zM931 1445l-3 -5q-8 10 -39 37q-37 38 -103 99q-70 64 -105 102q-5 -8 -15 -24.5t-19 -31.5t-17 -29l-48 -80q-22 -37 -36 -64q-26 -35 -72 -9
q-38 18 -55 45t-6 53q15 25 102 143q86 116 105 139l16 16l16 16q8 8 13 12q7 6 13 6q4 0 14 -2q8 -2 15 -9q49 -40 110 -97q27 -25 58 -53.5t34 -31.5q2 -1 57 -53q47 -44 67 -60q25 -22 18 -54q-22 -45 -59 -67q-35 -21 -61 2z" />
    <glyph glyph-name="wcircumflex" unicode="&#x175;" horiz-adv-x="1212" 
d="M842 1438l-2 -3q-8 10 -39 37q-37 38 -103 99q-70 65 -105 102q-23 -37 -51 -84q-37 -60 -48 -79q-22 -37 -36 -64q-26 -34 -72 -9q-38 18 -55 45t-6 54q15 25 102 143q86 116 105 139l16 16l15 15q7 7 12 11q7 6 14 6q3 0 13 -2q6 -1 16 -11q49 -40 110 -97
q46 -43 91 -85q2 -1 57 -53q45 -42 68 -62q26 -23 18 -53q-22 -45 -59 -67q-35 -21 -61 2zM1079 179h-2q-33 -78 -85 -135q-53 -59 -103 -72q-84 -27 -162 15q-79 43 -131 124q-31 48 -55 104q-21 50 -31 90q-9 37 -30 123q-71 -81 -73 -84q-143 -152 -260 -87
q-84 45 -105 184q-14 99 16 276q30 179 75 309q67 183 146 288q8 13 18 14q12 4 66 -44t54 -66q-17 -37 -32 -72q-14 -34 -29 -66q-56 -117 -88 -258q-21 -81 -32 -168q-20 -157 -2 -219q66 51 138 162q74 113 107 205q7 26 24 69q27 66 153 -6q10 -5 21 -18t6 -30
q-34 -172 -30 -268q12 -164 66 -272q44 -92 93 -119q88 -45 133 131q51 203 12 474q-40 289 -153 340q-15 7 -30 8q-27 1 12 63q46 76 87 73q6 0 13 -4q152 -86 224 -275t60 -399q-12 -211 -91 -390z" />
    <glyph glyph-name="Ycircumflex" unicode="&#x176;" horiz-adv-x="872" 
d="M508 616l-1 -2q67 119 110 273q25 80 37 171q12 110 11 165q0 5 -2 25q-1 14 -3 22q-1 5 -1 16v15q0 5 2 11l3 9q2 5 3 6q17 17 39 24q52 17 96 9q43 -10 43 -51q10 -86 4 -165q-14 -259 -129 -512q-76 -172 -195 -324q-113 -146 -252 -240q-103 -70 -132 -70
q-18 0 -30 12q-53 52 -54 120q0 29 25 39q99 47 188 132q53 51 101 107q10 12 4 30q-16 49 -39 113q-27 76 -36 98q-38 102 -87 243q-3 9 -83 234q-10 27 -18.5 51t-12.5 35t-4 12q-10 31 15 49q39 33 90 39q57 11 71 -24q25 -77 84 -241q7 -20 27 -76t32 -89
q43 -121 65 -188zM687 1446l-5 -4q-8 10 -39 37q-37 38 -103 99q-70 64 -105 102l-51 -85q-28 -48 -48 -81q-22 -37 -36 -64q-26 -34 -72 -9q-38 18 -55 45t-6 53q13 22 104 143t106 139q2 2 7.5 7t9.5 9q12 12 15 16q5 6 12 12t13 6q4 0 14 -2q8 -1 15 -9q49 -40 110 -97
q27 -25 58 -53.5t34 -31.5q2 -1 57 -53q44 -41 69 -60q25 -22 16 -54q-22 -45 -59 -67q-35 -21 -61 2z" />
    <glyph glyph-name="ycircumflex" unicode="&#x177;" 
d="M731 1114v-1q34 34 101 42q66 8 77 -21q16 -44 31 -182q15 -135 15 -225q0 -393 -186 -705q-186 -311 -512 -397q-301 -79 -588 75q-88 55 -76 96q7 27 45 60q39 34 70 44q19 6 51 -23q122 -83 264 -100t265 37q124 54 225 153q101 100 161 252q60 153 60 327
q-90 -155 -220 -183q-131 -29 -258 85q-128 114 -200 350q-12 40 -21 135q-9 97 -5 150q0 19 21 29t51 12t60 -3q32 -5 50 -16q20 -12 18 -29q8 -123 36 -270q46 -224 162 -258q100 -31 189 104q72 111 99 297q10 71 15 165zM688 1404l-5 -6q-8 10 -39 37q-37 38 -103 99
q-67 61 -105 101q-22 -37 -51 -84q-37 -60 -48 -79q-22 -37 -36 -64q-25 -34 -72 -9q-38 18 -55 45t-6 53q13 22 104 143t106 139q2 2 7.5 7t9.5 9q12 12 15 16q4 6 12 12q7 6 13 6q4 0 14 -2q7 -1 15 -9q49 -40 110 -97q27 -25 58 -53.5t34 -31.5q2 -1 57 -53
q43 -41 69 -60q25 -22 16 -54q-22 -45 -59 -67q-35 -21 -61 2z" />
    <glyph glyph-name="Ydieresis" unicode="&#x178;" horiz-adv-x="872" 
d="M508 616l-1 -2q67 119 110 273q25 80 37 171q12 110 11 165q0 5 -2 25q-1 14 -3 22q-1 5 -1 16v15q0 5 2 11l3 9q2 5 3 6q17 17 39 24q52 17 96 9q43 -10 43 -51q10 -86 4 -165q-14 -259 -129 -512q-76 -172 -195 -324q-113 -146 -252 -240q-103 -70 -132 -70
q-18 0 -30 12q-53 52 -54 120q0 29 25 39q99 47 188 132q53 51 101 107q10 12 4 30q-16 49 -39 113q-27 76 -36 98q-38 102 -87 243q-3 9 -83 234q-10 27 -18.5 51t-12.5 35t-4 12q-10 31 15 49q39 33 90 39q57 11 71 -24q25 -77 84 -241q7 -20 27 -76t32 -89
q43 -121 65 -188zM460 1577h-2q4 -51 -33 -91t-95 -40q-52 0 -90 37q-40 38 -41 94q-1 59 39 96t93 37t92 -40t37 -93zM824 1577h-3q4 -51 -33 -91t-96 -40q-52 0 -90 37q-40 38 -41 94q-1 59 39 96t94 37t93 -40t37 -93z" />
    <glyph glyph-name="circumflex" unicode="&#x2c6;" horiz-adv-x="663" 
d="M688 1448l-5 -4q-8 10 -39 37q-37 38 -103 99q-71 64 -105 102q-5 -8 -15 -24.5t-19 -31.5t-17 -29q-29 -48 -48 -81q-22 -37 -36 -64q-25 -34 -72 -9q-38 18 -55 45t-6 53q13 22 104 143t106 139q2 2 7.5 7t9.5 9q12 12 15 16q4 6 12 12q7 6 13 6q4 0 14 -2q7 -1 15 -9
q49 -40 110 -97q27 -25 58 -53.5t34 -31.5q2 -1 57 -53q43 -41 69 -60q25 -22 16 -54q-22 -45 -59 -67q-35 -21 -61 2z" />
    <glyph glyph-name="caron" unicode="&#x2c7;" horiz-adv-x="796" 
d="M133 1415l-2 -1q8 -10 39 -37q29 -31 104 -99q74 -68 105 -100q1 25 26 65q26 42 60 89q35 48 48 71q19 33 72 10q84 -43 61 -96q-14 -25 -102 -144t-105 -135q-2 -2 -16 -18t-16 -18q-5 -5 -13 -10t-13 -5q-3 0 -13 2q-8 1 -15 9q-32 26 -109 98q-27 25 -57 53.5
t-34 32.5q-2 1 -57 53q-47 44 -67 60q-29 18 -17 54q23 47 59 68t62 -2z" />
    <glyph glyph-name="ring" unicode="&#x2da;" horiz-adv-x="305" 
d="M692 1622q0 -76 -51 -120q-52 -44 -114 -44q-64 0 -114 43q-51 43 -51 121q0 76 51 120q50 43 114 43t114 -43q51 -44 51 -120zM584 1620l-1 1q0 35 -28 48q-29 14 -57 -1t-28 -48q0 -37 29 -51t57 1t28 50z" />
    <glyph glyph-name="tilde" unicode="&#x2dc;" horiz-adv-x="980" 
d="M891 1688l2 -2q33 -50 31 -111q-2 -60 -36 -108q-29 -41 -66 -59q-50 -33 -111 -33q-16 0 -61 12q-46 12 -98 45q-100 60 -148 99q-16 13 -48 33q-8 5 -18 11t-15.5 9.5t-8.5 5.5q-6 6 -18 9q-8 2 -17 5q-16 13 -28 -7q-8 -11 -2 -27q7 -12 32 -50q28 -42 38 -61
q13 -25 6 -34q-19 -19 -135 -45q-12 -1 -22 9q-28 31 -51 66q-29 51 -39 90q-14 57 12 117q25 59 78 91q58 37 129 30q57 -11 108 -42q61 -37 144 -96q51 -39 104 -69q7 -4 45 -21q33 -12 51 21q6 12 -6 24q-23 27 -47 35q-24 7 -24 36q0 53 39 113l6 6l6 6q8 8 27 2
q28 -8 87 -51q31 -24 54 -59z" />
    <glyph glyph-name="Wgrave" unicode="&#x1e80;" horiz-adv-x="1406" 
d="M74 977l-7 -3q46 211 86 291q12 27 37 26q70 0 127 -51q20 -18 8 -47q-47 -107 -75 -261q-56 -302 -12 -459q26 -92 59 -113t90 28q63 56 117 153q85 157 129 323q6 25 27 125q0 3 1 6q1 5 3 18q2 18 3 26q1 12 3 27q2 20 3 29t3 25q1 8 1 18l2 6q0 17 48 26q50 9 98 5
q50 -5 50 -16q0 -34 -25 -166q-28 -156 -36 -299q-8 -142 27 -285t123 -192q66 -13 117 56q52 70 77 188t36 254q11 135 0 263t-39 206q-1 34 42 48t87 6t44 -30q31 -133 34 -318q3 -183 -21 -366q-24 -182 -101 -324q-76 -140 -192 -166q-133 -40 -234 68
q-100 108 -165 311q-98 -148 -189 -203q-77 -45 -144 -43q-83 5 -139 55q-78 71 -111 208q-33 138 -27 275q6 134 35 272zM761 1439l-2 -1q-128 102 -225 307q-29 59 61 78q83 18 135 -8q16 -7 18 -21q0 -40 35 -116t99 -122l4 -7q2 -23 -43 -70t-82 -40z" />
    <glyph glyph-name="wgrave" unicode="&#x1e81;" horiz-adv-x="1212" 
d="M1081 182h-2q-33 -78 -85 -135q-53 -59 -103 -72q-84 -27 -162 15q-79 43 -131 124q-31 48 -55 104q-21 50 -31 90q-9 38 -30 123q-71 -81 -73 -84q-143 -152 -260 -87q-84 45 -105 184q-14 99 16 276q30 178 75 309q67 183 146 288q8 13 18 14q12 4 66 -44t54 -66
q-17 -37 -32 -72q-14 -34 -29 -66q-56 -117 -88 -258q-21 -81 -32 -168q-20 -157 -2 -219q66 51 138 162q74 113 107 205q7 25 24 69q27 66 153 -6q10 -4 21 -18t6 -30q-34 -172 -30 -268q12 -164 66 -272q44 -92 93 -119q88 -45 133 131q51 202 12 474q-40 289 -153 340
q-15 7 -30 8q-27 2 12 63q46 76 87 73q6 0 13 -4q152 -86 224 -275t60 -399q-12 -211 -91 -390zM563 1473q-128 102 -225 307q-29 59 61 78q84 18 136 -9q16 -7 16 -20q0 -39 35 -117q34 -76 98 -123l4 -6q2 -23 -43 -70t-82 -40z" />
    <glyph glyph-name="Wacute" unicode="&#x1e82;" horiz-adv-x="1406" 
d="M74 977l-7 -3q46 211 86 291q12 27 37 26q70 0 127 -51q20 -18 8 -47q-47 -107 -75 -261q-56 -302 -12 -459q26 -92 59 -113t90 28q63 56 117 153q85 157 129 323q6 25 27 125q0 3 1 6q1 5 3 18q2 18 3 26q1 12 3 27q2 20 3 29t3 25q1 8 1 18l2 6q0 17 48 26q50 9 98 5
q50 -5 50 -16q0 -34 -25 -166q-28 -156 -36 -299q-8 -142 27 -285t123 -192q66 -13 117 56q52 70 77 188t36 254q11 135 0 263t-39 206q-1 34 42 48t87 6t44 -30q31 -133 34 -318q3 -183 -21 -366q-24 -182 -101 -324q-76 -140 -192 -166q-133 -40 -234 68
q-100 108 -165 311q-98 -148 -189 -203q-77 -45 -144 -43q-83 5 -139 55q-78 71 -111 208q-33 138 -27 275q6 134 35 272zM736 1457v1q-45 -10 -100 63q-34 49 -15 54q58 51 93 125q35 75 35 114q0 31 84 34q102 4 129 -39q12 -19 0 -45q-99 -205 -226 -307z" />
    <glyph glyph-name="wacute" unicode="&#x1e83;" horiz-adv-x="1212" 
d="M647 1425h1q-45 -10 -100 63q-35 50 -17 54q58 51 93 125q35 75 35 114q0 31 84 36q102 5 129 -39q12 -20 0 -45q-98 -206 -225 -308zM1082 182h-2q-33 -78 -85 -135q-53 -59 -103 -72q-84 -27 -162 15q-79 43 -131 124q-31 48 -55 104q-21 50 -31 90q-9 38 -30 123
q-71 -81 -73 -84q-143 -152 -260 -87q-84 45 -105 184q-14 99 16 276q30 178 75 309q67 183 146 288q8 13 18 14q12 4 66 -44t54 -66q-17 -37 -32 -72q-14 -34 -29 -66q-56 -117 -88 -258q-21 -81 -32 -168q-20 -157 -2 -219q66 51 138 162q74 113 107 205q8 25 24 69
q27 66 153 -6q11 -4 21 -18t6 -30q-34 -172 -30 -268q12 -164 66 -272q44 -92 93 -119q88 -45 133 131q51 202 12 474q-40 289 -153 340q-15 7 -30 8q-27 2 12 63q46 76 87 73q6 0 13 -4q152 -86 224 -275t60 -399q-12 -211 -91 -390z" />
    <glyph glyph-name="Wdieresis" unicode="&#x1e84;" horiz-adv-x="1406" 
d="M74 977l-7 -3q46 211 86 291q12 27 37 26q70 0 127 -51q20 -18 8 -47q-47 -107 -75 -261q-56 -302 -12 -459q26 -92 59 -113t90 28q63 56 117 153q85 157 129 323q6 25 27 125q0 3 1 6q1 5 3 18q2 18 3 26q1 12 3 27q2 20 3 29t3 25q1 8 1 18l2 6q0 17 48 26q50 9 98 5
q50 -5 50 -16q0 -34 -25 -166q-28 -156 -36 -299q-8 -142 27 -285t123 -192q66 -13 117 56q52 70 77 188t36 254q11 135 0 263t-39 206q-1 34 42 48t87 6t44 -30q31 -133 34 -318q3 -183 -21 -366q-24 -182 -101 -324q-76 -140 -192 -166q-133 -40 -234 68
q-100 108 -165 311q-98 -148 -189 -203q-77 -45 -144 -43q-83 5 -139 55q-78 71 -111 208q-33 138 -27 275q6 134 35 272zM683 1576h-2q4 -51 -33 -91t-95 -40q-52 0 -90 37q-40 38 -41 94q-2 58 39 96q40 37 93 37t92 -40t37 -93zM1048 1576h-2q4 -51 -33 -91t-95 -40
q-52 0 -90 37q-40 38 -41 94q-1 58 38 96q38 37 93 37q54 0 93 -40t37 -93z" />
    <glyph glyph-name="wdieresis" unicode="&#x1e85;" horiz-adv-x="1212" 
d="M530 1579h-3q4 -51 -33 -91t-96 -40q-52 0 -90 37q-40 38 -41 94q-1 59 39 96t94 37t93 -40t37 -93zM894 1579h-2q4 -51 -33 -91t-95 -40q-52 0 -90 37q-40 38 -41 94q-1 59 39 96t93 37t92 -40t37 -93zM1076 182h-2q-33 -78 -85 -135q-53 -59 -103 -72q-84 -27 -162 15
q-79 43 -131 124q-31 48 -55 104q-21 50 -31 90q-9 38 -30 123q-71 -81 -73 -84q-143 -152 -260 -87q-84 45 -105 184q-14 99 16 276q30 178 75 309q67 183 146 288q8 13 18 14q12 4 66 -44t54 -66q-17 -37 -32 -72q-14 -34 -29 -66q-56 -117 -88 -258q-21 -81 -32 -168
q-20 -157 -2 -219q66 51 138 162q74 113 107 205q8 25 24 69q27 66 153 -6q11 -4 21 -18t6 -30q-34 -172 -30 -268q12 -164 66 -272q44 -92 93 -119q88 -45 133 131q51 202 12 474q-40 289 -153 340q-15 7 -30 8q-27 2 12 63q46 76 87 73q6 0 13 -4q152 -86 224 -275
t60 -399q-12 -211 -91 -390z" />
    <glyph glyph-name="Ygrave" unicode="&#x1ef2;" horiz-adv-x="872" 
d="M508 616l-1 -2q67 119 110 273q25 80 37 171q12 110 11 165q0 5 -2 25q-1 14 -3 22q-1 5 -1 16v15q0 5 2 11l3 9q2 5 3 6q17 17 39 24q52 17 96 9q43 -10 43 -51q10 -86 4 -165q-14 -259 -129 -512q-76 -172 -195 -324q-113 -146 -252 -240q-103 -70 -132 -70
q-18 0 -30 12q-53 52 -54 120q0 29 25 39q99 47 188 132q53 51 101 107q10 12 4 30q-16 49 -39 113q-27 76 -36 98q-38 102 -87 243q-3 9 -83 234q-10 27 -18.5 51t-12.5 35t-4 12q-10 31 15 49q39 33 90 39q57 11 71 -24q25 -77 84 -241q7 -20 27 -76t32 -89
q43 -121 65 -188zM501 1471h-1q-127 102 -226 307q-28 58 63 78q84 18 135 -9q16 -7 16 -20q0 -39 35 -117q35 -76 99 -123l4 -6q2 -23 -43 -70t-82 -40z" />
    <glyph glyph-name="ygrave" unicode="&#x1ef3;" 
d="M731 1114v-1q34 34 101 42q66 8 77 -21q16 -44 31 -182q15 -135 15 -225q0 -393 -186 -705q-186 -311 -512 -397q-301 -79 -588 75q-88 55 -76 96q7 27 45 60q39 34 70 44q19 6 51 -23q122 -83 264 -100t265 37q124 54 225 153q101 100 161 252q60 153 60 327
q-90 -155 -220 -183q-131 -29 -258 85q-128 114 -200 350q-12 40 -21 135q-9 97 -5 150q0 19 21 29t51 12t60 -3q32 -5 50 -16q20 -12 18 -29q8 -123 36 -270q46 -224 162 -258q100 -31 189 104q72 111 99 297q10 71 15 165zM502 1388h-1q-127 102 -226 307q-29 59 63 78
q84 18 135 -9q16 -7 16 -20q0 -39 35 -117q34 -77 99 -123l4 -6q2 -23 -43 -70t-82 -40z" />
    <glyph glyph-name="uniE706" unicode="&#xe706;" horiz-adv-x="1708" 
d="M1135 1030l2 5q0 31 12 60q6 13 12 18q7 5 18 5h31q8 0 48 2h375q27 0 39 -22q23 -45 12 -101q-10 -63 -49 -63q-88 0 -96 -2l-2 -305q0 -54 1 -96t1 -94v-112q1 -34 0 -127t3 -124q2 -16 2 -33v-33q1 -31 -27 -43q-68 -32 -134 -3q-27 12 -27 41q0 47 -1 84t-1 84
q0 57 -1 105t-1 105v115q0 53 -1 94t-1 93q0 57 -1 132t-1 114q-6 1 -51 0q-30 -1 -49 -1q-20 0 -36 1t-34 1q-43 0 -43 100zM575 1297h-2q0 33 13 60q4 11 9 15q3 3 9 7q4 3 18 3h28h44q19 0 61 2h516q26 0 39 -22q18 -44 12 -102q-14 -63 -48 -63h-131h-11h-21
q-16 0 -24 -1t-20 -1h-8l-1 -1q0 -2 -0.5 -5t-0.5 -5q-1 -9 0 -13q-4 -139 0 -280q-1 -66 3 -189q-2 -45 9 -317v-126q0 -114 4 -126q0 -48 2 -66q0 -29 -27 -42q-72 -31 -133 -3q-29 12 -26 41q-5 111 -3 168q-4 137 -3 210q-11 279 -9 320q-4 125 -3 186q-2 46 -2 248h-38
h-45h-36q-62 0 -88 1t-44 1q-43 0 -43 100zM705 200l-2 -4q-17 -58 -30 -83q-14 -26 -34 -26q-113 0 -129 10q-12 5 -2 31q10 27 9 33l6 -4q-81 -38 -126 -43q-10 0 -31 -3q-8 -1 -18 -3t-13 -2q-25 -4 -42 -4q-85 0 -150 37q-82 46 -100 131q-8 44 4 94q18 65 68 115
q72 73 149 107q20 8 40 15q17 6 48 13q23 5 38 11q54 14 119 8q13 -1 39 -6q30 -5 35 -7l4 15q-26 124 -81 215q-40 66 -101 69q-60 3 -108 -49q-48 -53 -54 -130v-35q0 -32 -4 -37q-11 -29 -58 -33q-41 -5 -69 6q-33 10 -25 99t48 167q55 101 144 142t174 18
q85 -22 159 -98t107 -186q76 -260 -14 -583zM571 419h2q2 20 -10 27q-13 10 -35 18q-32 10 -99 3q-70 -10 -127 -45q-53 -32 -72 -58q-26 -33 -27 -55q-5 -12 12 -20q11 -7 24 -12q47 -11 78 -9q53 2 107 24q82 33 120 78q26 32 27 49z" />
    <glyph glyph-name="uniE737" unicode="&#xe737;" horiz-adv-x="1392" 
d="M612 1030l-1 -8q0 -100 -43 -100q-18 0 -34 -1t-36 -1h-101q0 -39 -1 -114t-1 -132q0 -52 -1 -93t-1 -93v-115q0 -57 -1 -105t-1 -105q0 -47 -1 -84t-1 -84q0 -29 -27 -41q-63 -28 -133 3q-29 12 -26 43q2 14 2 33v34q4 40 4 138v114q2 14 0 56q-1 28 -1 56q0 52 1 94
t1 96v280q0 7 -1 13t-1 13l-21 2h-43h-22h-131q-39 0 -49 63q-10 56 12 102q12 22 39 21h140h238h118q42 -2 50 -2h31q11 0 18 -5q6 -4 12 -18q12 -28 12 -60zM1173 1284v-5q0 -100 -44 -100q-17 0 -42 -1t-87 -1h-120q0 -39 -1 -114t-1 -133q0 -52 -1 -93t-1 -93
q0 -43 -4 -159t-4 -160q0 -55 -1 -104t-1 -107q0 -47 -1 -84t-1 -84q0 -28 -26 -42q-63 -28 -133 3q-28 12 -27 43q2 14 2 33v34q4 40 4 138v114q8 245 8 318q0 52 1 94t1 96v280q0 7 -1 13t-1 13l-20 2h-43h-23h-131q-39 0 -49 63q-10 56 12 102q12 22 39 21h516
q42 -2 60 -2h43h28q14 0 18 -3q6 -4 9 -7q5 -5 9 -15q13 -26 13 -60zM1269 659l-2 -3q-38 -206 -40 -314q-2 -105 42 -314q-19 0 -36 -1t-47 -1h-45q-23 0 -37 3t-15 7q-29 94 -30 348q-1 252 23 325q17 28 59 23q41 -4 87 -29q46 -24 41 -44zM1211 1018l3 -2q43 0 73 -31
t28 -72q2 -41 -30 -71q-31 -30 -75 -30q-40 0 -72 32t-30 71q1 39 32 71q30 32 71 32z" />
    <glyph glyph-name="uniE73C" unicode="&#xe73c;" horiz-adv-x="1144" 
d="M133 1180l1 -4q-142 -6 -233 -21l-33 -3l-33 -3q-18 -1 -27 18t-9 38q0 80 2 94q5 25 36 36q145 35 399 35h156q140 0 230 -3t126 -6t47 -3q18 0 35 -10q18 -10 18 -27q0 -83 -19 -120q-23 -39 -45 -33q-62 17 -460 18v-17v-137q0 -71 1 -127q2 -85 3 -125q0 -66 1 -118
q1 -77 3 -118q0 -69 1 -126q1 -86 3 -126q4 -145 4 -237q0 -35 -31 -45q-55 -25 -121 -3q-32 11 -33 45q-2 36 -2 84q0 55 -3 166t-3 164q0 14 -2 122t-2 122t-2 122t-2 122q0 194 -6 226zM1052 426l-2 -2q-46 -79 -111 -137q-102 -95 -222 -84t-204 121q-52 67 -68 164
q-20 124 31 252q51 129 152 209q100 79 207 66q96 -12 161 -76q67 -65 92 -150q26 -85 18 -183t-54 -180zM937 717v-1q-14 58 -51 95q-38 37 -84 27q-62 -12 -112 -69q-49 -56 -70 -123q-21 -66 -9 -135t59 -108q28 -25 65 -28q35 -3 63 17q80 38 119 136q39 100 20 189z
" />
    <glyph glyph-name="uniE73D" unicode="&#xe73d;" horiz-adv-x="954" 
d="M41 -45l-1 -2q0 127 30 348q29 216 53 309q11 -2 66 -6t91 -12t45 -21q71 -113 177 -246q108 -135 174 -191l1 -10q1 2 3 22q22 252 30 498q49 17 131 19h69q0 -159 -22 -348q-25 -241 -25 -348q0 -1 -2 -25t-2 -28q0 -16 -90 -22t-104 11q-117 117 -183 192
q-59 67 -249 296l-10 -198l-12 -248v2zM445 696l-2 -1q-124 7 -225 71q-101 63 -126 160q-29 110 31 217q56 102 172 161q117 60 242 54q64 -2 131 -21q127 -33 196 -135q69 -103 38 -227q-34 -136 -170 -213q-135 -77 -287 -66zM742 1009h-2q25 70 -32 121q-58 52 -146 59
t-174 -21q-45 -18 -84 -54t-51 -79q-20 -80 49 -135q67 -53 161 -53q95 0 174 45t105 117z" />
    <glyph glyph-name="uniE800" unicode="&#xe800;" horiz-adv-x="798" 
d="M705 172l1 2q-17 -58 -30 -83q-14 -26 -34 -26q-112 0 -129 11q-12 5 -2 31q11 27 9 33l6 -4q-81 -38 -126 -43q-3 0 -13 -2t-18 -3q-21 -3 -31 -3q-25 -4 -42 -4q-85 0 -150 37q-82 46 -100 131q-8 44 4 94q18 69 68 115q71 71 149 106q20 8 40 15q28 9 48 14
q30 7 38 10q54 14 119 8q14 -1 39 -6q17 -3 35 -6l4 14q-26 124 -81 215q-40 66 -101 69q-60 3 -108 -49q-48 -53 -54 -130v-36q0 -33 -4 -38q-11 -29 -58 -33q-40 -5 -69 6q-33 13 -25 101q8 87 48 165q74 137 195 161t231 -57t155 -230q76 -262 -14 -585zM574 397h2
q2 20 -10 29t-35 16q-31 10 -99 3q-70 -10 -127 -45q-53 -32 -72 -57q-26 -33 -27 -55q-4 -12 12 -21q10 -7 24 -12q46 -11 78 -9q53 2 107 24q83 33 120 78q26 32 27 49z" />
    <glyph glyph-name="uniE801" unicode="&#xe801;" horiz-adv-x="960" 
d="M322 1270l1 -3q-35 -93 -68 -296q-33 -204 -27 -353q22 4 57 12t45 9q67 12 145 2q97 -13 159 -39q115 -43 196 -117q66 -66 93 -139q23 -52 12 -111q-13 -100 -111 -166q-61 -43 -180 -58h-55q-34 0 -78 4q-526 43 -465 760q39 463 90 522q13 16 50 13q35 -3 70 -15
q41 -14 66 -25zM302 308l1 -4q58 -58 160 -92q63 -20 139 -20q57 0 102 18q12 5 31 16q27 23 15 53q-12 31 -40 57q-43 43 -99 70q-78 38 -166 48q-85 8 -131 -13q-4 -1 -42 -21q-25 -28 -13 -57q12 -28 43 -55z" />
    <glyph glyph-name="uniE802" unicode="&#xe802;" horiz-adv-x="851" 
d="M780 8l-1 -4q-53 -13 -140 -14q-89 -2 -132 6q-221 39 -353 191q-132 151 -112 354q19 200 222 349q202 148 472 148q35 0 56 -81q21 -82 11 -122q-90 16 -187 -6q-198 -46 -307 -140q-108 -93 -78 -240q19 -101 90 -162t162 -78q92 -17 179 -12q85 4 156 29q14 0 15 -52
q2 -54 -13 -106q-15 -54 -40 -60z" />
    <glyph glyph-name="uniE803" unicode="&#xe803;" horiz-adv-x="892" 
d="M698 1389l3 -2q55 -55 121 -490q27 -202 -4 -489q-32 -290 -106 -411q-7 2 -82 12q-76 10 -88 21q-6 6 3 41q10 38 21 74q12 38 10 48q-86 -41 -147 -51q-49 -8 -75 -9q-33 -4 -54 -4q-103 0 -176 43q-97 53 -119 153q-12 54 4 110q19 70 80 138q65 71 180 127
q47 22 150 48q68 14 139 8q22 -2 48 -7q25 -5 45 -7q-1 146 -48 336t-87 273q50 29 97 42q48 14 85 -4zM628 543h2q-26 13 -42 18q-50 13 -123 3q-69 -11 -153 -55q-43 -22 -88 -72q-26 -27 -33 -52t15 -45q13 -8 30 -14q36 -14 96 -11q65 1 129 29q88 34 145 96
q26 28 35 55q9 29 -13 48z" />
    <glyph glyph-name="uniE804" unicode="&#xe804;" horiz-adv-x="827" 
d="M786 649v-3q0 -63 -104 -114q-105 -52 -236 -71q-130 -19 -222 -4q13 -149 83 -225q69 -75 161 -52t170 140q29 32 66 20q38 -12 63 -52t4 -72q-101 -152 -237 -194t-264 30q-127 72 -201 245q-41 101 -45 220q-4 120 27 228q31 107 107 189q75 81 178 105
q150 33 300 -105t150 -285zM602 691l-1 -1q-66 141 -172 156q-107 15 -168 -106q-25 -49 -37 -116h84q76 4 114 12q130 24 180 55z" />
    <glyph glyph-name="uniE805" unicode="&#xe805;" horiz-adv-x="602" 
d="M455 1176l-6 -3q-13 1 -39 -12q-47 -26 -68 -60q-58 -89 -87 -201q-14 -64 -24 -133q-10 -76 -7 -198q6 -73 29 -157q0 -2 4 -9l221 73l4 2l5 2q27 12 47 -12q45 -55 43 -127q-1 -29 -30 -39q-93 -30 -154 -51q-9 -2 -29 -9q-21 -8 -33 -12q17 -32 32 -57q12 -19 39 -48
q25 -27 66 -58q-6 -23 -18 -41q-27 -40 -62 -60l-9 -3q-5 -1 -6 -3q-13 -2 -36 9q-115 52 -192 212q-76 159 -96 347q-19 187 21 385q41 199 142 323q77 97 180 119q76 13 144 -6q22 1 6 -69q-23 -92 -69 -104q-11 -2 -18 0z" />
    <glyph glyph-name="uniE806" unicode="&#xe806;" horiz-adv-x="1040" 
d="M795 651l1 -2q-19 -17 -38 -37q-32 -34 -34 -36q-98 -98 -260 -134q-43 -8 -126 -8q-118 14 -191 86q-47 51 -57 123q-14 89 43 192q51 88 182 165q83 47 172 60q103 18 204 -23q13 -5 41 -21t45 -21q-10 11 -13 48q-3 36 9 51q11 10 27 21q34 19 102 21q35 0 41 -19
q1 -7 24 -138q8 -38 15 -127q4 -41 4 -138q0 -392 -186 -699t-511 -397q-297 -80 -584 75q-7 4 -34 26l-30 24q-17 13 -9 39q6 20 39 53q37 37 75 49q16 6 31 -8l6 -6l9 -9q161 -113 327 -98q167 15 304 109q138 94 237 267q98 171 121 375q2 23 6 47t6 44q2 26 2 46z
M316 633l1 -2q5 0 60 -12q62 1 129 32q74 33 125 101q20 26 21 55q4 33 -15 45q-5 4 -15 9q-9 4 -12 4q-32 17 -105 3q-119 -20 -195 -108q-27 -38 -30 -55q-15 -55 36 -72z" />
    <glyph glyph-name="uniE807" unicode="&#xe807;" horiz-adv-x="821" 
d="M66 1278l-3 -4q0 28 22 35q5 5 16 9q56 18 120 -4q29 -12 29 -41v-346v-19q85 0 149 -13q67 -14 116 -33q50 -20 90 -58q38 -36 67 -77q26 -36 46 -101q20 -63 30 -117t18 -140q8 -85 9 -153t3 -174l-176 2q12 142 2 267q-11 131 -37 224q-27 96 -107 147t-207 41
q-8 -27 3 -653q1 -18 -16 -31q-8 -7 -17 -8q-66 -22 -127 3q-28 12 -26 41q-2 359 -3 570q-1 141 -1 297v336z" />
    <glyph glyph-name="uniE808" unicode="&#xe808;" horiz-adv-x="311" 
d="M82 653l-2 -3q-2 20 42 45t84 30t54 -21q16 -52 6 -361q-10 -308 -33 -343q-5 -13 -90 -14q-85 -2 -102 12q33 103 45 299q12 198 -4 356zM168 976l-4 -2q43 0 73 -32q30 -31 28 -72q1 -40 -28 -70q-30 -30 -73 -30q-41 0 -72 31q-32 32 -29 72q1 42 32 73q30 30 73 30z
" />
    <glyph glyph-name="uniE809" unicode="&#xe809;" horiz-adv-x="960" 
d="M340 416l3 -1q-85 0 -122 -60t-6 -123q31 -62 120 -73q109 -12 197 53q87 64 138 180q50 113 76 260q26 144 18 297q-8 154 -45 287q33 12 69 21q38 9 71 8q35 -2 47 -18q26 -38 34 -221q8 -182 3 -306q-5 -163 -58 -307q-54 -146 -142 -243t-195 -151q-106 -54 -226 -36
q-119 18 -229 113q-77 66 -87 153t29 158t102 120q64 50 126 50q25 0 45 -41q20 -42 26 -81z" />
    <glyph glyph-name="uniE80A" unicode="&#xe80a;" horiz-adv-x="804" 
d="M240 702v-2q136 70 225 165t108 183q12 25 95 28q82 3 87 -23q16 -89 -86 -234q-102 -144 -202 -199q74 -44 125 -114q69 -90 100 -170q30 -78 27 -127q-3 -44 -1 -109l-176 2q14 44 -7 121t-93 172q-76 101 -201 90q-6 -17 2 -358q5 -35 -42 -45q-47 -11 -96 4t-49 46
q-1 255 -5 412q-3 132 1 162l10 409q0 27 23 35q5 5 16 9q56 18 120 -4q29 -12 29 -41z" />
    <glyph glyph-name="uniE80B" unicode="&#xe80b;" horiz-adv-x="458" 
d="M510 113l3 -1q-5 -34 -15 -60q-12 -27 -41 -24h-70q-13 -2 -132 3q-132 5 -144 5q-11 0 -19 278t-6 351v188q2 29 0 159t0 159q0 216 -2 250v66q-1 31 27 43q67 28 132 0q28 -12 26 -41v-168q-2 -44 -2 -105v-105q0 -75 1 -162t1 -159q-2 -42 -2 -94v-93q0 -4 5 -186
t5 -184v-14q24 -2 119 -2q44 -4 72 -4q14 0 20 -10q8 -12 12 -21t10 -69z" />
    <glyph glyph-name="uniE80C" unicode="&#xe80c;" horiz-adv-x="1361" 
d="M31 639l-2 -1q5 141 18 213q19 92 35 129q33 86 102 144q58 49 140 51q64 0 143 -48q71 -46 145 -153l20 -28q14 -21 18 -26l15 28q38 119 99 209q50 67 123 111q84 46 174 15q40 -12 87 -59q55 -55 94 -154q26 -65 43 -147q27 -229 24 -481q-3 -248 -20 -364
q0 -23 -48 -29q-47 -6 -95 11q-46 16 -42 51q25 150 6 508t-60 430q-13 31 -36 49q-66 58 -127 -121q-68 -209 -68 -463q0 -62 6 -108q5 -28 -99 -12q-95 14 -93 35q1 113 -126 366q-52 98 -111 155q-56 50 -90 30q-34 -19 -64 -112q-39 -141 -16 -360q22 -215 80 -361
q12 -29 -10 -47q-57 -46 -129 -45q-25 0 -36 27l-2 6q0 1 -1 3t-1 3q-39 83 -72 283q-12 71 -18 145z" />
    <glyph glyph-name="uniE80D" unicode="&#xe80d;" horiz-adv-x="995" 
d="M37 57l-3 -4q0 131 53 650q53 515 72 590q11 -1 62 -6q48 -5 63 -6q5 -1 27 -5q5 -1 12 -2t9 -2q8 -2 13 -3q7 -1 9 -5q2 -3 3 -10q17 -45 74 -210q17 -50 48 -147t48 -147q4 -13 66 -193l115 -266v2q2 5 3 37q1 33 3 84q1 34 1 71q0 111 26 633q4 32 7 114q3 77 -1 93
q14 5 132 19q41 0 48 -12q8 -13 8 -61q5 -42 -13 -332q-18 -293 -18 -315q-4 -149 -4 -252q-2 -90 -2 -204q0 -27 1 -48t1 -48q0 -68 -22 -72q-27 -12 -97 -24t-79 -4q-63 57 -144 214q-83 161 -140 315q-23 66 -113 346l-24 74q-17 -114 -46 -449q-28 -320 -28 -423z" />
    <glyph glyph-name="uniE80E" unicode="&#xe80e;" horiz-adv-x="778" 
d="M705 360h3q-51 -98 -115 -159q-106 -109 -241 -106q-134 3 -235 122q-61 72 -84 180q-31 135 18 282t156 243t225 86q106 -10 184 -78t111 -162q33 -96 29 -204q-4 -110 -51 -204zM576 686l-1 -1q-18 61 -66 105t-104 30q-97 -27 -157 -129t-51 -216t82 -169
q38 -28 84 -28q45 0 71 23q90 49 130 166t12 219z" />
    <glyph glyph-name="uniE80F" unicode="&#xe80f;" horiz-adv-x="890" 
d="M700 1047h-1q-6 44 -52 57q-47 14 -108 0q-66 -14 -125 -37q-64 -24 -110 -54q-47 -30 -57 -49q-27 -116 -15 -180q153 18 316 110q162 92 152 153zM85 6l-1 -6q-33 118 -45 398q-12 274 8 538q19 259 69 310q28 18 81 21q52 3 90 -20q5 -4 7 -12t0 -20q-1 -10 -5 -23
q-3 -12 -6 -25q-1 -5 -5 -21l-13 6q12 17 90 52q78 34 140 48q57 16 126 9q66 -7 127 -29q59 -21 95 -69t25 -113q-20 -134 -144 -237t-261 -148q-138 -45 -243 -41q17 -461 49 -588q7 -33 -36 -49t-93 -10q-49 6 -55 29z" />
    <glyph glyph-name="uniE810" unicode="&#xe810;" horiz-adv-x="1015" 
d="M106 836l-3 -3q91 157 272 207q180 50 350 -36l2 -35l6 26q19 88 42 136q7 17 42 12q85 -12 123 -60q-8 13 -48 -192q-51 -254 -41 -381q0 -141 35 -279q34 -135 98 -246q63 -109 150 -192q86 -82 183 -121q96 -39 207 -27q112 12 216 82l18 12q14 11 30 3q44 -20 69 -57
q29 -43 30 -60q4 -28 -14 -36q-2 -1 -13.5 -8t-20.5 -12q-24 -13 -39 -21q-311 -113 -587 9q-270 117 -411 386q-141 268 -139 606q-91 -78 -228 -105q-43 -8 -126 -8q-118 13 -189 86q-57 58 -60 144q-3 87 46 170zM282 759q-73 -100 6 -127q82 -27 189 20q74 33 125 101
q20 26 23 55q4 33 -17 45q-41 29 -131 14q-119 -19 -195 -108z" />
    <glyph glyph-name="uniE811" unicode="&#xe811;" horiz-adv-x="794" 
d="M51 1157l-5 -1q0 27 23 35q5 5 16 9q56 18 120 -4q29 -12 29 -41v-41q118 49 239 81q67 17 123 15q63 -4 102 -27q98 -59 66 -170q-17 -51 -61 -109q-83 -100 -219 -183q55 -38 102 -98q36 -47 61 -93q22 -40 37 -83q14 -41 20 -81q7 -46 8 -90q1 -32 1 -105v-129l-176 2
q8 196 -7 282q-15 89 -91 186q-52 71 -131 88q-30 6 -69 2q-5 -2 -3 -176q2 -175 6 -356q1 -18 -18 -31q-8 -7 -15 -8q-66 -22 -127 3q-27 12 -27 41q-1 281 -3 465q-1 123 -1 281v336zM233 790l8 -1q72 37 117 65q161 100 196 165q-40 18 -138 -15q-99 -34 -183 -85v-111
v-18z" />
    <glyph glyph-name="uniE812" unicode="&#xe812;" horiz-adv-x="649" 
d="M16 53l4 -4q-32 5 -39 46t5 80q12 37 30 36q123 -16 205 -9q83 8 147 51q86 57 47 158q-18 49 -102 135q-88 90 -161 174q-76 88 -85 159q-12 109 74 195q67 71 177 86q112 15 189 -43q26 -27 17 -67q-9 -41 -34 -63q-22 -22 -38 -30q-15 -8 -23 -6q-7 1 -25 12t-30 15
q-32 12 -69 -1t-42 -39t0 -48q4 -21 26 -49q18 -22 41 -46l60 -60q32 -32 66 -64q130 -131 153 -267t-66 -234t-264 -126q-107 -17 -263 9z" />
    <glyph glyph-name="uniE813" unicode="&#xe813;" horiz-adv-x="458" 
d="M510 1460l-4 -2q-6 -60 -10 -69q-9 -15 -13 -21q-6 -10 -20 -10q-40 -4 -72 -4q-67 0 -119 -2v-15q0 -2 -5 -185t-5 -187v-92q0 -50 2 -94q0 -72 -1 -158t-1 -160v-104q0 -61 2 -105v-168q0 -29 -26 -41q-58 -31 -132 -3q-28 12 -27 43q1 0 0 33v33q2 34 2 252
q-1 29 0 159t0 159v188q-2 35 3 218q4 163 4 200q0 7 -1 13t-1 13q-2 0 -10 2h-4h-23h-27h-21q-27 2 -131 -4q-29 0 -41 28q-7 18 -9 35q-12 56 10 100q11 23 39 23q445 16 516 10q47 -5 69 -3q29 6 41 -22q11 -26 15 -60z" />
    <glyph glyph-name="uniE814" unicode="&#xe814;" horiz-adv-x="944" 
d="M41 659l-3 -3q0 90 24 208q24 120 55 183q12 27 37 26q70 0 127 -51q20 -18 8 -47q-49 -111 -63 -281t15 -273q26 -92 58 -113q34 -21 92 28q64 56 117 151q150 269 149 513q0 17 50 26q51 9 98 5q48 -5 48 -16q0 -88 -12 -196t-15 -179q-3 -70 12 -264q6 -67 24 -131
q3 -12 17 -48t14 -37l6 -19q4 -13 -2 -24q-3 -5 -6 -11q-49 -49 -114 -67q-29 -7 -42 18q0 1 -2 3q-5 8 -6 12q-8 23 -25 67q-20 51 -30 85q-10 36 -12 71q0 3 -1.5 13.5t-2.5 18.5l-2.5 20t-1.5 13q-8 -15 -19 -30q-14 -20 -22 -27q-78 -103 -151 -147q-77 -45 -144 -43
q-83 5 -139 55q-66 57 -96 147q-13 44 -30 131q-10 56 -10 213z" />
    <glyph glyph-name="uniE815" unicode="&#xe815;" horiz-adv-x="952" 
d="M264 926v3q58 -308 170 -708q5 0 15 31q5 14 37 120q24 79 54 172l213 684q11 32 51 30q64 -5 110 -39q10 -7 15 -17q5 -9 3 -26q-2 -16 -6 -30q-1 -3 -15 -43q-11 -30 -18 -54l-117 -375q-28 -85 -94 -301q-38 -117 -119 -384q-5 -11 -9 -15l-203 -6q-43 86 -129 384
t-138 534q-6 27 37 45q44 18 91 18t52 -23z" />
    <glyph glyph-name="uniE816" unicode="&#xe816;" horiz-adv-x="1232" 
d="M1174 702l3 5q-2 -16 -2 -70v-70q0 -15 -4 -39q-5 -27 -6 -42q-5 -38 -16 -87q-12 -55 -15 -63q-19 -81 -48 -148q-44 -99 -100 -149q-52 -47 -88 -56q-94 -29 -174 24q-73 41 -119 114q-58 90 -92 211q-1 5 -5.5 23t-7.5 31q-2 9 -5 21t-5 19t-3 12q-71 -81 -73 -84
q-63 -67 -113 -90q-73 -37 -147 2q-41 20 -68 69q-26 44 -37 114q-6 43 -2 120q0 20 10 109q11 113 30 170q23 20 107 15q42 -2 62 -11t18 -25q-21 -81 -32 -168q-12 -110 -11 -162q0 -31 9 -58q32 25 51 51q43 47 125 168q35 52 69 148q7 26 24 69q13 33 51 31
q72 -8 117 -48q18 -14 12 -36q-19 -101 -27 -155q-6 -58 -4 -114q6 -78 29 -164q19 -73 36 -108q23 -47 45 -75q17 -26 47 -43q19 -11 36 3q23 20 39 48q32 51 45 109q27 103 39 163q22 116 12 192q-2 34 45 48t95 6t48 -30z" />
    <glyph glyph-name="uniE817" unicode="&#xe817;" horiz-adv-x="755" 
d="M475 240v-3q-13 25 -102 177q-6 -16 -21 -51q-4 -10 -11.5 -27.5t-10.5 -23.5q-12 -28 -36 -87t-36 -87l-78 -182q-10 -25 -19 -31q-8 -6 -34 -4q-73 11 -111 49q-22 22 -10 51q3 6 33 80q21 51 30 69q8 20 62 147q30 71 73 174q10 25 21 51.5t16.5 40t7.5 18.5
q7 17 -3 36q-40 82 -93 167q-58 94 -86 148q-23 44 -51 90q-20 34 33 78q46 37 92 37q20 0 35 -20q41 -58 72 -124q32 -67 66 -120q4 -6 36 -57q1 4 26 62q18 42 54 128q20 48 44 104q41 97 48 121q10 31 43 31q72 0 121 -49q22 -23 9 -51q-14 -35 -135 -322q-3 -8 -7 -18
t-10.5 -25.5t-10.5 -26.5q-18 -45 -33 -81q-16 -38 -31 -67q-4 -7 -4 -12q40 -74 60 -108q36 -58 84 -142q68 -119 71 -124q4 -8 14 -26t32 -56.5t40 -71.5t-4 -55q-40 -40 -98 -57q-32 -8 -43 1q-13 10 -32 46l-6 12q-10 21 -47 84q-28 49 -60 107z" />
    <glyph glyph-name="uniE818" unicode="&#xe818;" horiz-adv-x="882" 
d="M842 846l-3 -4q-13 -314 -111 -537q-63 -149 -153 -235q-92 -86 -207 -107q-152 -23 -309 87q-27 16 -18 43q14 73 81 113q22 12 42 -2q52 -39 111 -51q70 -13 124 18q45 26 63 46q19 20 39 53q-54 -16 -103 -16q-67 0 -129 43q-67 45 -114 137q-43 84 -66 195
q-31 150 -21 384t60 267q14 11 62 3q49 -8 72 -25q32 -26 24 -54q-34 -134 -33 -315t42 -306q39 -112 90 -133t102 38q50 57 94 176q47 118 60 213q13 91 13 325q0 40 59 54t93 -3q34 -11 39 -144q5 -134 -3 -263z" />
    <glyph glyph-name="uniE819" unicode="&#xe819;" horiz-adv-x="856" 
d="M231 303v-3q80 -14 144 -8q60 0 99 10q129 22 182 68q27 18 68 -6q46 -29 68 -63q20 -37 0 -57q-52 -52 -131 -81q-79 -35 -174 -45q-158 -22 -304 -10q-143 12 -154 47q-17 51 3 114q62 180 152 321q86 136 323 441q-35 18 -155 11q-119 -7 -193 -33q-25 -7 -51 30
q-43 57 -48 101q-2 28 22 38t78 21q46 7 111 14q89 12 210 7q41 -1 183 -23q32 -5 65 -16q25 -7 40 -59q15 -51 -3 -75q-31 -35 -123 -146q-341 -412 -412 -598z" />
    <glyph glyph-name="glyph1" horiz-adv-x="204" 
 />
    <glyph glyph-name="glyph2" horiz-adv-x="681" 
 />
    <glyph glyph-name="glyph266" horiz-adv-x="204" 
 />
    <glyph glyph-name="glyph267" horiz-adv-x="204" 
 />
    <glyph glyph-name="glyph268" horiz-adv-x="727" 
 />
    </font>
</defs>
</svg>
